akhirsch

handbrake convert to NTSC format

Jun 18th, 2020
13
Never
Not a member of Pastebin yet? Sign Up, it unlocks many cool features!
  1. [08:37:20] Compile-time hardening features are enabled
  2. Cannot load nvEncodeAPI64.dll
  3.  
  4. # System Battery Low! (21 %). Your encode has been paused to protect the system. System sleep is set to allowed!
  5.  
  6. [08:38:10] hb_init: starting libhb thread
  7.  
  8. # Starting Scan ...
  9.  
  10. [08:38:10] CPU: Intel(R) Celeron(R) CPU N3350 @ 1.10GHz
  11. [08:38:10] - logical processor count: 2
  12. [08:38:10] Intel Quick Sync Video support: yes
  13. [08:38:10] - Intel Media SDK hardware: API 1.25 (minimum: 1.3)
  14. [08:38:10] - H.264 encoder: yes
  15. [08:38:10] - preferred implementation: hardware (any) via D3D11
  16. [08:38:10] - capabilities (hardware): breftype icq+la+i+downs vsinfo opt1 opt2+mbbrc+extbrc+trellis+ib_adapt+nmpslice
  17. [08:38:10] - H.265 encoder: yes (8bit: yes, 10bit: yes)
  18. [08:38:10] - preferred implementation: hardware (any) via D3D11
  19. [08:38:10] - capabilities (hardware): bpyramid icq vsinfo opt1
  20. [08:38:10] hb_scan: path=C:\Users\jason\Videos\All Our Loving.mp4, title_index=0
  21. udfread ERROR: ECMA 167 Volume Recognition failed
  22. src/libbluray/disc/disc.c:323: failed opening UDF image C:\Users\jason\Videos\All Our Loving.mp4
  23. src/libbluray/disc/disc.c:424: error opening file BDMV\index.bdmv
  24. src/libbluray/disc/disc.c:424: error opening file BDMV\BACKUP\index.bdmv
  25. src/libbluray/bluray.c:2585: nav_get_title_list(C:\Users\jason\Videos\All Our Loving.mp4\) failed
  26. [08:38:10] bd: not a bd - trying as a stream/file instead
  27. libdvdnav: Using dvdnav version 6.0.1
  28. libdvdread: Encrypted DVD support unavailable.
  29. libdvdread:DVDOpenFileUDF:UDFFindFile /VIDEO_TS/VIDEO_TS.IFO failed
  30. libdvdread:DVDOpenFileUDF:UDFFindFile /VIDEO_TS/VIDEO_TS.BUP failed
  31. libdvdread: Can't open file VIDEO_TS.IFO.
  32. libdvdnav: vm: failed to read VIDEO_TS.IFO
  33. [08:38:10] dvd: not a dvd - trying as a stream/file instead
  34. Input #0, mov,mp4,m4a,3gp,3g2,mj2, from 'C:\Users\jason\Videos\All Our Loving.mp4':
  35. Metadata:
  36. major_brand : mp42
  37. minor_version : 0
  38. compatible_brands: mp41isom
  39. creation_time : 2020-02-22T04:16:56.000000Z
  40. Duration: 00:04:28.12, start: 0.000000, bitrate: 1488 kb/s
  41. Stream #0:0(und): Video: h264 (Constrained Baseline) (avc1 / 0x31637661), yuv420p, 1920x1080 [SAR 1:1 DAR 16:9], 1364 kb/s, 30 fps, 30 tbr, 30k tbn, 60 tbc (default)
  42. Metadata:
  43. creation_time : 2020-02-22T04:16:56.000000Z
  44. handler_name : VideoHandler
  45. encoder : AVC Coding
  46. Stream #0:1(und): Audio: aac (LC) (mp4a / 0x6134706D), 48000 Hz, stereo, fltp, 121 kb/s (default)
  47. Metadata:
  48. creation_time : 2020-02-22T04:16:56.000000Z
  49. handler_name : SoundHandler
  50. [08:38:12] scan: decoding previews for title 1
  51. [08:38:12] scan: audio 0x1: aac, rate=48000Hz, bitrate=121562 Unknown (AAC LC) (2.0 ch) (121 kbps)
  52. [08:38:14] scan: 10 previews, 1920x1080, 30.000 fps, autocrop = 0/0/150/150, aspect 16:9, PAR 1:1
  53. [08:38:14] scan: supported video decoders: avcodec qsv
  54. [08:38:14] libhb: scan thread found 1 valid title(s)
  55.  
  56. # Processing Scan Information ...
  57.  
  58.  
  59. # Scan Finished ...
RAW Paste Data