daily pastebin goal
72%
SHARE
TWEET

Untitled

a guest Feb 14th, 2018 56 Never
Not a member of Pastebin yet? Sign Up, it unlocks many cool features!
  1. General
  2. Unique ID                                : 217361506837680470168766137635809771446 (0xA3864DB0B4F1A50B8F43E24E22DFBFB6)
  3. Complete name                            : C:\Users\Revo\Downloads\DESCARGAS REVO\Altered Carbon (2018) NF WEB-DL 1080p Latino S01E01.mkv
  4. Format                                   : Matroska
  5. Format version                           : Version 4 / Version 2
  6. File size                                : 1.14 GiB
  7. Duration                                 : 58 min 53 s
  8. Overall bit rate mode                    : Variable
  9. Overall bit rate                         : 2 765 kb/s
  10. Movie name                               : CinemaniaHDD.com
  11. Encoded date                             : UTC 2018-02-03 03:07:18
  12. Writing application                      : mkvmerge v15.0.0 ('Duel with the Devil') 64-bit
  13. Writing library                          : libebml v1.3.5 + libmatroska v1.4.5
  14.  
  15. Video
  16. ID                                       : 1
  17. Format                                   : AVC
  18. Format/Info                              : Advanced Video Codec
  19. Format profile                           : Main@L4
  20. Format settings, CABAC                   : Yes
  21. Format settings, ReFrames                : 3 frames
  22. Codec ID                                 : V_MPEG4/ISO/AVC
  23. Duration                                 : 33 min 57 s
  24. Bit rate mode                            : Variable
  25. Bit rate                                 : 3 480 kb/s
  26. Maximum bit rate                         : 5 220 kb/s
  27. Width                                    : 1 920 pixels
  28. Height                                   : 1 080 pixels
  29. Display aspect ratio                     : 16:9
  30. Frame rate mode                          : Constant
  31. Frame rate                               : 23.976 (23976/1000) FPS
  32. Original frame rate                      : 23.976 (24000/1001) FPS
  33. Color space                              : YUV
  34. Chroma subsampling                       : 4:2:0
  35. Bit depth                                : 8 bits
  36. Scan type                                : Progressive
  37. Bits/(Pixel*Frame)                       : 0.070
  38. Stream size                              : 843 MiB (72%)
  39. Writing library                          : x264 core 148 r2715 7e75228
  40. Encoding settings                        : cabac=1 / ref=3 / deblock=1:0:0 / analyse=0x1:0x111 / me=umh / subme=10 / psy=1 / psy_rd=1.00:0.00 / mixed_ref=1 / me_range=24 / chroma_me=1 / trellis=2 / 8x8dct=0 / cqm=0 / deadzone=21,11 / fast_pskip=1 / chroma_qp_offset=-2 / threads=8 / lookahead_threads=1 / sliced_threads=0 / nr=0 / decimate=1 / interlaced=0 / bluray_compat=0 / stitchable=1 / constrained_intra=0 / bframes=2 / b_pyramid=0 / b_adapt=2 / b_bias=0 / direct=3 / weightb=1 / open_gop=0 / weightp=2 / keyint=48 / keyint_min=25 / scenecut=0 / intra_refresh=0 / rc_lookahead=48 / rc=2pass / mbtree=1 / bitrate=3480 / ratetol=1.0 / qcomp=0.50 / qpmin=6 / qpmax=51 / qpstep=4 / cplxblur=20.0 / qblur=0.5 / vbv_maxrate=5220 / vbv_bufsize=6960 / nal_hrd=vbr / filler=0 / ip_ratio=1.40 / aq=1:1.00
  41. Language                                 : English
  42. Default                                  : Yes
  43. Forced                                   : No
  44.  
  45. Audio #1
  46. ID                                       : 2
  47. Format                                   : AC-3
  48. Format/Info                              : Audio Coding 3
  49. Mode extension                           : CM (complete main)
  50. Format settings, Endianness              : Big
  51. Codec ID                                 : A_AC3
  52. Duration                                 : 58 min 53 s
  53. Bit rate mode                            : Constant
  54. Bit rate                                 : 384 kb/s
  55. Channel(s)                               : 6 channels
  56. Channel positions                        : Front: L C R, Side: L R, LFE
  57. Sampling rate                            : 48.0 kHz
  58. Frame rate                               : 31.250 FPS (1536 spf)
  59. Bit depth                                : 16 bits
  60. Compression mode                         : Lossy
  61. Stream size                              : 162 MiB (14%)
  62. Title                                    : EspaƱol
  63. Language                                 : Spanish
  64. Default                                  : No
  65. Forced                                   : No
  66.  
  67. Audio #2
  68. ID                                       : 3
  69. Format                                   : AC-3
  70. Format/Info                              : Audio Coding 3
  71. Mode extension                           : CM (complete main)
  72. Format settings, Endianness              : Big
  73. Codec ID                                 : A_AC3
  74. Duration                                 : 58 min 2 s
  75. Bit rate mode                            : Constant
  76. Bit rate                                 : 384 kb/s
  77. Channel(s)                               : 6 channels
  78. Channel positions                        : Front: L C R, Side: L R, LFE
  79. Sampling rate                            : 48.0 kHz
  80. Frame rate                               : 31.250 FPS (1536 spf)
  81. Bit depth                                : 16 bits
  82. Compression mode                         : Lossy
  83. Stream size                              : 159 MiB (14%)
  84. Language                                 : English
  85. Default                                  : No
  86. Forced                                   : No
  87.  
  88. Text #1
  89. ID                                       : 4
  90. Format                                   : UTF-8
  91. Codec ID                                 : S_TEXT/UTF8
  92. Codec ID/Info                            : UTF-8 Plain Text
  93. Duration                                 : 57 min 41 s
  94. Bit rate                                 : 1 b/s
  95. Count of elements                        : 25
  96. Stream size                              : 593 Bytes (0%)
  97. Title                                    : Forzados
  98. Language                                 : Spanish
  99. Default                                  : Yes
  100. Forced                                   : Yes
  101.  
  102. Text #2
  103. ID                                       : 5
  104. Format                                   : UTF-8
  105. Codec ID                                 : S_TEXT/UTF8
  106. Codec ID/Info                            : UTF-8 Plain Text
  107. Duration                                 : 57 min 40 s
  108. Bit rate                                 : 58 b/s
  109. Count of elements                        : 720
  110. Stream size                              : 24.6 KiB (0%)
  111. Title                                    : Completos
  112. Language                                 : Spanish
  113. Default                                  : No
  114. Forced                                   : No
RAW Paste Data
We use cookies for various purposes including analytics. By continuing to use Pastebin, you agree to our use of cookies as described in the Cookies Policy. OK, I Understand
 
Top