SHARE
TWEET

a.x.l.2018.1080p.bluray.x264-geckos.mkv

iMN0 Dec 20th, 2018 28 Never
Not a member of Pastebin yet? Sign Up, it unlocks many cool features!
  1. General
  2. Unique ID                                : 265435742487138904184756223693916716062 (0xC7B110818AEB45BB380CF3C57D83BC1E)
  3. Complete name                            : a.x.l.2018.1080p.bluray.x264-geckos.mkv
  4. Format                                   : Matroska
  5. Format version                           : Version 4 / Version 2
  6. File size                                : 7.65 GiB
  7. Duration                                 : 1h 38mn
  8. Overall bit rate                         : 11.1 Mbps
  9. Encoded date                             : UTC 2018-12-21 03:54:56
  10. Writing application                      : mkvmerge v29.0.0 ('Like It Or Not') 64-bit
  11. Writing library                          : libebml v1.3.6 + libmatroska v1.4.9
  12.  
  13. Video
  14. ID                                       : 1
  15. Format                                   : AVC
  16. Format/Info                              : Advanced Video Codec
  17. Format profile                           : High@L4.1
  18. Format settings, CABAC                   : Yes
  19. Format settings, ReFrames                : 5 frames
  20. Codec ID                                 : V_MPEG4/ISO/AVC
  21. Duration                                 : 1h 38mn
  22. Bit rate                                 : 9 598 Kbps
  23. Width                                    : 1 920 pixels
  24. Height                                   : 800 pixels
  25. Display aspect ratio                     : 2.40:1
  26. Frame rate mode                          : Constant
  27. Frame rate                               : 23.976 (24000/1001) fps
  28. Color space                              : YUV
  29. Chroma subsampling                       : 4:2:0
  30. Bit depth                                : 8 bits
  31. Scan type                                : Progressive
  32. Bits/(Pixel*Frame)                       : 0.261
  33. Stream size                              : 6.61 GiB (86%)
  34. Writing library                          : x264 core 157 r2935 545de2f
  35. Encoding settings                        : cabac=1 / ref=5 / deblock=1:-3:-3 / analyse=0x3:0x113 / me=umh / subme=8 / psy=1 / psy_rd=1.00:0.00 / mixed_ref=1 / me_range=16 / chroma_me=1 / trellis=1 / 8x8dct=1 / cqm=0 / deadzone=21,11 / fast_pskip=1 / chroma_qp_offset=-2 / threads=24 / lookahead_threads=4 / sliced_threads=0 / nr=0 / decimate=1 / interlaced=0 / bluray_compat=0 / constrained_intra=0 / bframes=3 / b_pyramid=2 / b_adapt=1 / b_bias=0 / direct=3 / weightb=1 / open_gop=0 / weightp=2 / keyint=250 / keyint_min=23 / scenecut=40 / intra_refresh=0 / rc_lookahead=50 / rc=2pass / mbtree=1 / bitrate=9598 / ratetol=1.0 / qcomp=0.60 / qpmin=0 / qpmax=69 / qpstep=4 / cplxblur=20.0 / qblur=0.5 / ip_ratio=1.40 / aq=1:1.00
  36. Language                                 : English
  37. Default                                  : Yes
  38. Forced                                   : No
  39.  
  40. Audio
  41. ID                                       : 2
  42. Format                                   : DTS
  43. Format/Info                              : Digital Theater Systems
  44. Mode                                     : 16
  45. Format settings, Endianness              : Big
  46. Codec ID                                 : A_DTS
  47. Duration                                 : 1h 38mn
  48. Bit rate mode                            : Constant
  49. Bit rate                                 : 1 509 Kbps
  50. Channel(s)                               : 6 channels
  51. Channel positions                        : Front: L C R, Side: L R, LFE
  52. Sampling rate                            : 48.0 KHz
  53. Frame rate                               : 93.750 fps (512 spf)
  54. Bit depth                                : 24 bits
  55. Compression mode                         : Lossy
  56. Stream size                              : 1.04 GiB (14%)
  57. Language                                 : English
  58. Default                                  : Yes
  59. Forced                                   : No
RAW Paste Data
We use cookies for various purposes including analytics. By continuing to use Pastebin, you agree to our use of cookies as described in the Cookies Policy. OK, I Understand
Not a member of Pastebin yet?
Sign Up, it unlocks many cool features!
 
Top