SHARE
TWEET

A.Nightmare.on.Elm.Street.1984.BluRay.1080p.DTS-HD.MA.7.1.VC-1.REMUX-FraMeSToR

a guest Jun 16th, 2019 68 Never
Not a member of Pastebin yet? Sign Up, it unlocks many cool features!
  1. General
  2. Unique ID                                : 137303967631184045741652657782132609045 (0x674BC84322B3E738D48407C0767C9015)
  3. Complete name                            : A.Nightmare.on.Elm.Street.1984.BluRay.1080p.DTS-HD.MA.7.1.VC-1.REMUX-FraMeSToR.mkv
  4. Format                                   : Matroska
  5. Format version                           : Version 4
  6. File size                                : 21.3 GiB
  7. Duration                                 : 1 h 31 min
  8. Overall bit rate mode                    : Variable
  9. Overall bit rate                         : 33.5 Mb/s
  10. Movie name                               : A Nightmare on Elm Street (1984)
  11. Encoded date                             : UTC 2015-12-22 09:26:56
  12. Writing application                      : mkvmerge v8.6.1 ('Flying') 64bit
  13. Writing library                          : libebml v1.3.3 + libmatroska v1.4.4
  14.  
  15. Video
  16. ID                                       : 1
  17. Format                                   : VC-1
  18. Format profile                           : Advanced@L3
  19. Codec ID                                 : V_MS/VFW/FOURCC / WVC1
  20. Codec ID/Hint                            : Microsoft
  21. Duration                                 : 1 h 31 min
  22. Bit rate                                 : 27.6 Mb/s
  23. Width                                    : 1 920 pixels
  24. Height                                   : 1 080 pixels
  25. Display aspect ratio                     : 16:9
  26. Frame rate mode                          : Constant
  27. Frame rate                               : 23.976 (24000/1001) FPS
  28. Color space                              : YUV
  29. Chroma subsampling                       : 4:2:0
  30. Bit depth                                : 8 bits
  31. Scan type                                : Progressive
  32. Compression mode                         : Lossy
  33. Bits/(Pixel*Frame)                       : 0.555
  34. Stream size                              : 17.6 GiB (82%)
  35. Title                                    : FraMeSToR / VC-1 / 27585 kbps / 1080p / 23.976 fps / 16:9 / Advanced@L3
  36. Language                                 : English
  37. Default                                  : No
  38. Forced                                   : No
  39.  
  40. Audio #1
  41. ID                                       : 2
  42. Format                                   : DTS XLL
  43. Format/Info                              : Digital Theater Systems
  44. Commercial name                          : DTS-HD Master Audio
  45. Codec ID                                 : A_DTS
  46. Duration                                 : 1 h 31 min
  47. Bit rate mode                            : Variable
  48. Bit rate                                 : 5 221 kb/s
  49. Channel(s)                               : 8 channels
  50. Channel layout                           : C L R LFE Lb Rb Lss Rss
  51. Sampling rate                            : 48.0 kHz
  52. Frame rate                               : 93.750 FPS (512 SPF)
  53. Bit depth                                : 24 bits
  54. Compression mode                         : Lossless
  55. Stream size                              : 3.33 GiB (16%)
  56. Title                                    : English / DTS-HD MA 7.1 / 48 kHz / 5221 kbps / 24-bit (DTS Core: 5.1 / 48 kHz / 1509 kbps / 24-bit)
  57. Language                                 : English
  58. Default                                  : Yes
  59. Forced                                   : No
  60.  
  61. Audio #2
  62. ID                                       : 3
  63. Format                                   : AC-3
  64. Format/Info                              : Audio Coding 3
  65. Commercial name                          : Dolby Digital
  66. Codec ID                                 : A_AC3
  67. Duration                                 : 1 h 31 min
  68. Bit rate mode                            : Constant
  69. Bit rate                                 : 192 kb/s
  70. Channel(s)                               : 2 channels
  71. Channel layout                           : L R
  72. Sampling rate                            : 48.0 kHz
  73. Frame rate                               : 31.250 FPS (1536 SPF)
  74. Bit depth                                : 16 bits
  75. Compression mode                         : Lossy
  76. Stream size                              : 125 MiB (1%)
  77. Title                                    : English / DD 2.0 / 48 kHz / 192 kbps / 16-bit (Commentary by Director Wes Craven, Actress Heather Langenkamp, Actor John Saxon, and Director of Photography Jacques Haitkin)
  78. Language                                 : English
  79. Service kind                             : Complete Main
  80. Default                                  : No
  81. Forced                                   : No
  82.  
  83. Audio #3
  84. ID                                       : 4
  85. Format                                   : AC-3
  86. Format/Info                              : Audio Coding 3
  87. Commercial name                          : Dolby Digital
  88. Codec ID                                 : A_AC3
  89. Duration                                 : 1 h 31 min
  90. Bit rate mode                            : Constant
  91. Bit rate                                 : 192 kb/s
  92. Channel(s)                               : 2 channels
  93. Channel layout                           : L R
  94. Sampling rate                            : 48.0 kHz
  95. Frame rate                               : 31.250 FPS (1536 SPF)
  96. Bit depth                                : 16 bits
  97. Compression mode                         : Lossy
  98. Stream size                              : 125 MiB (1%)
  99. Title                                    : English / DD 2.0 / 48 kHz / 192 kbps / 16-bit (Commentary by Director Wes Craven, Producer Robert Shaye, Co-Producer Sara Risher)
  100. Language                                 : English
  101. Service kind                             : Complete Main
  102. Default                                  : No
  103. Forced                                   : No
  104.  
  105. Text #1
  106. ID                                       : 5
  107. Format                                   : PGS
  108. Codec ID                                 : S_HDMV/PGS
  109. Codec ID/Info                            : Picture based subtitle format used on BDs/HD-DVDs
  110. Duration                                 : 1 h 30 min
  111. Bit rate                                 : 24.8 kb/s
  112. Count of elements                        : 1894
  113. Stream size                              : 16.1 MiB (0%)
  114. Title                                    : English (SDH)
  115. Language                                 : English
  116. Default                                  : No
  117. Forced                                   : No
  118.  
  119. Text #2
  120. ID                                       : 6
  121. Format                                   : PGS
  122. Codec ID                                 : S_HDMV/PGS
  123. Codec ID/Info                            : Picture based subtitle format used on BDs/HD-DVDs
  124. Duration                                 : 1 h 30 min
  125. Bit rate                                 : 6 718 b/s
  126. Count of elements                        : 318
  127. Stream size                              : 4.36 MiB (0%)
  128. Title                                    : English (Movie Facts)
  129. Language                                 : English
  130. Default                                  : No
  131. Forced                                   : No
  132.  
  133. Text #3
  134. ID                                       : 7
  135. Format                                   : PGS
  136. Codec ID                                 : S_HDMV/PGS
  137. Codec ID/Info                            : Picture based subtitle format used on BDs/HD-DVDs
  138. Duration                                 : 1 h 30 min
  139. Bit rate                                 : 20.7 kb/s
  140. Count of elements                        : 1629
  141. Stream size                              : 13.3 MiB (0%)
  142. Title                                    : French
  143. Language                                 : French
  144. Default                                  : No
  145. Forced                                   : No
  146.  
  147. Text #4
  148. ID                                       : 8
  149. Format                                   : PGS
  150. Codec ID                                 : S_HDMV/PGS
  151. Codec ID/Info                            : Picture based subtitle format used on BDs/HD-DVDs
  152. Duration                                 : 1 h 30 min
  153. Bit rate                                 : 27.3 kb/s
  154. Count of elements                        : 1888
  155. Stream size                              : 17.8 MiB (0%)
  156. Title                                    : German (SDH)
  157. Language                                 : German
  158. Default                                  : No
  159. Forced                                   : No
  160.  
  161. Text #5
  162. ID                                       : 9
  163. Format                                   : PGS
  164. Codec ID                                 : S_HDMV/PGS
  165. Codec ID/Info                            : Picture based subtitle format used on BDs/HD-DVDs
  166. Duration                                 : 1 h 30 min
  167. Bit rate                                 : 21.9 kb/s
  168. Count of elements                        : 1632
  169. Stream size                              : 14.1 MiB (0%)
  170. Title                                    : Italian
  171. Language                                 : Italian
  172. Default                                  : No
  173. Forced                                   : No
  174.  
  175. Text #6
  176. ID                                       : 10
  177. Format                                   : PGS
  178. Codec ID                                 : S_HDMV/PGS
  179. Codec ID/Info                            : Picture based subtitle format used on BDs/HD-DVDs
  180. Duration                                 : 1 h 30 min
  181. Bit rate                                 : 24.9 kb/s
  182. Count of elements                        : 1902
  183. Stream size                              : 16.2 MiB (0%)
  184. Title                                    : Italian (SDH)
  185. Language                                 : Italian
  186. Default                                  : No
  187. Forced                                   : No
  188.  
  189. Text #7
  190. ID                                       : 11
  191. Format                                   : PGS
  192. Codec ID                                 : S_HDMV/PGS
  193. Codec ID/Info                            : Picture based subtitle format used on BDs/HD-DVDs
  194. Duration                                 : 1 h 29 min
  195. Bit rate                                 : 20.5 kb/s
  196. Count of elements                        : 1618
  197. Stream size                              : 13.1 MiB (0%)
  198. Title                                    : Dutch
  199. Language                                 : Dutch
  200. Default                                  : No
  201. Forced                                   : No
  202.  
  203. Text #8
  204. ID                                       : 12
  205. Format                                   : PGS
  206. Codec ID                                 : S_HDMV/PGS
  207. Codec ID/Info                            : Picture based subtitle format used on BDs/HD-DVDs
  208. Duration                                 : 1 h 30 min
  209. Bit rate                                 : 18.9 kb/s
  210. Count of elements                        : 1650
  211. Stream size                              : 12.2 MiB (0%)
  212. Title                                    : Chinese-Mandarin
  213. Language                                 : Chinese
  214. Default                                  : No
  215. Forced                                   : No
  216.  
  217. Text #9
  218. ID                                       : 13
  219. Format                                   : PGS
  220. Codec ID                                 : S_HDMV/PGS
  221. Codec ID/Info                            : Picture based subtitle format used on BDs/HD-DVDs
  222. Duration                                 : 1 h 30 min
  223. Bit rate                                 : 22.2 kb/s
  224. Count of elements                        : 1644
  225. Stream size                              : 14.3 MiB (0%)
  226. Title                                    : Spanish-Latin American
  227. Language                                 : Spanish
  228. Default                                  : No
  229. Forced                                   : No
  230.  
  231. Text #10
  232. ID                                       : 14
  233. Format                                   : PGS
  234. Codec ID                                 : S_HDMV/PGS
  235. Codec ID/Info                            : Picture based subtitle format used on BDs/HD-DVDs
  236. Duration                                 : 1 h 30 min
  237. Bit rate                                 : 20.5 kb/s
  238. Count of elements                        : 1628
  239. Stream size                              : 13.2 MiB (0%)
  240. Title                                    : Greek
  241. Language                                 : Greek
  242. Default                                  : No
  243. Forced                                   : No
  244.  
  245. Text #11
  246. ID                                       : 15
  247. Format                                   : PGS
  248. Codec ID                                 : S_HDMV/PGS
  249. Codec ID/Info                            : Picture based subtitle format used on BDs/HD-DVDs
  250. Duration                                 : 1 h 30 min
  251. Bit rate                                 : 46.5 kb/s
  252. Count of elements                        : 3330
  253. Stream size                              : 30.2 MiB (0%)
  254. Title                                    : Chinese-Mandarin
  255. Language                                 : Chinese
  256. Default                                  : No
  257. Forced                                   : No
  258.  
  259. Text #12
  260. ID                                       : 16
  261. Format                                   : PGS
  262. Codec ID                                 : S_HDMV/PGS
  263. Codec ID/Info                            : Picture based subtitle format used on BDs/HD-DVDs
  264. Duration                                 : 1 h 31 min
  265. Bit rate                                 : 49.5 kb/s
  266. Count of elements                        : 3202
  267. Stream size                              : 32.3 MiB (0%)
  268. Title                                    : Chinese-Mandarin
  269. Language                                 : Chinese
  270. Default                                  : No
  271. Forced                                   : No
  272.  
  273. Menu
  274. 00:00:00.000                             : en:Opening Titles / Meet the Glove
  275. 00:03:35.590                             : en:You Gotta Stop That Kind of Dreaming
  276. 00:05:51.433                             : en:"I'm So Glad You Guys Could Come Over Tonight"
  277. 00:08:10.990                             : en:"There's Something Out There"
  278. 00:10:44.018                             : en:The Call of the Wind
  279. 00:14:48.053                             : en:A Bloody Mess
  280. 00:18:26.689                             : en:"She Didn't Want to Sleep Alone"
  281. 00:20:27.643                             : en:Captured
  282. 00:23:06.343                             : en:Hamlet Hijack
  283. 00:29:27.431                             : en:Rod Sings
  284. 00:31:39.855                             : en:Splash
  285. 00:34:22.893                             : en:Guarding Nancy
  286. 00:37:03.387                             : en:Feather Bed
  287. 00:43:13.422                             : en:Hung Up
  288. 00:47:28.971                             : en:The Hat Comes Back
  289. 00:51:29.710                             : en:"You're Dead"
  290. 00:56:19.543                             : en:"Mommy Killed Him"
  291. 00:58:51.527                             : en:"Midnight, Baseball Bats, and Boogeymen"
  292. 01:02:59.693                             : en:No Way Out
  293. 01:08:02.369                             : en:It's A Gusher
  294. 01:11:49.514                             : en:Survivalist
  295. 01:15:34.654                             : en:Finding Freddy
  296. 01:21:04.693                             : en:Fight Fire with Fire
  297. 01:25:26.037                             : en:"You're Shit"
  298. 01:29:06.591                             : en:End Credits
RAW Paste Data
We use cookies for various purposes including analytics. By continuing to use Pastebin, you agree to our use of cookies as described in the Cookies Policy. OK, I Understand
 
Top