SHARE
TWEET

Madman.1982.1080p.BluRay.REMUX.AVC.DTS-HD.MA.1.0-EPSiLON

a guest Jun 13th, 2019 18 Never
Not a member of Pastebin yet? Sign Up, it unlocks many cool features!
  1. General
  2. Complete name                            : Madman.1982.1080p.BluRay.REMUX.AVC.DTS-HD.MA.1.0-EPSiLON.mkv
  3. Format                                   : Matroska
  4. Format version                           : Version 4
  5. File size                                : 19.3 GiB
  6. Duration                                 : 1 h 28 min
  7. Overall bit rate mode                    : Variable
  8. Overall bit rate                         : 31.2 Mb/s
  9. Encoded date                             : UTC 2018-12-10 16:16:20
  10. Writing application                      : mkvmerge v29.0.0 ('Like It Or Not') 64-bit
  11. Writing library                          : libebml v1.3.6 + libmatroska v1.4.9
  12.  
  13. Video
  14. ID                                       : 1
  15. Format                                   : AVC
  16. Format/Info                              : Advanced Video Codec
  17. Format profile                           : High@L4.1
  18. Format settings                          : CABAC / 3 Ref Frames
  19. Format settings, CABAC                   : Yes
  20. Format settings, Reference frames        : 3 frames
  21. Codec ID                                 : V_MPEG4/ISO/AVC
  22. Duration                                 : 1 h 28 min
  23. Bit rate mode                            : Variable
  24. Bit rate                                 : 30.0 Mb/s
  25. Maximum bit rate                         : 40.0 Mb/s
  26. Width                                    : 1 920 pixels
  27. Height                                   : 1 080 pixels
  28. Display aspect ratio                     : 16:9
  29. Frame rate mode                          : Constant
  30. Frame rate                               : 23.976 (24000/1001) FPS
  31. Standard                                 : NTSC
  32. Color space                              : YUV
  33. Chroma subsampling                       : 4:2:0
  34. Bit depth                                : 8 bits
  35. Scan type                                : Progressive
  36. Bits/(Pixel*Frame)                       : 0.603
  37. Stream size                              : 18.5 GiB (96%)
  38. Title                                    : MPEG-4 AVC Video / 29913 kbps / 1080p / 23.976 fps / 16:9 / High Profile 4.1
  39. Writing library                          : x264pro - Adobe CS Exporter Plug-in
  40. Encoding settings                        : cabac=1 / ref=4 / deblock=1:-1:-1 / analyse=0x3:0x133 / me=umh / subme=10 / psy=1 / psy_rd=1.00:0.15 / mixed_ref=1 / me_range=24 / chroma_me=1 / trellis=2 / 8x8dct=1 / cqm=0 / deadzone=21,11 / fast_pskip=1 / chroma_qp_offset=-3 / threads=12 / lookahead_threads=2 / sliced_threads=0 / slices=4 / nr=0 / decimate=1 / interlaced=0 / bluray_compat=1 / constrained_intra=0 / bframes=3 / b_pyramid=1 / b_adapt=2 / b_bias=0 / direct=3 / weightb=1 / open_gop=0 / weightp=1 / keyint=24 / keyint_min=1 / scenecut=40 / intra_refresh=0 / rc_lookahead=24 / rc=2pass / mbtree=1 / bitrate=30000 / ratetol=1.0 / qcomp=0.60 / qpmin=0 / qpmax=69 / qpstep=4 / cplxblur=20.0 / qblur=0.5 / vbv_maxrate=40000 / vbv_bufsize=30000 / nal_hrd=vbr / ip_ratio=1.40 / aq=1:1.00
  41. Language                                 : English
  42. Default                                  : Yes
  43. Forced                                   : No
  44. Color range                              : Limited
  45. Color primaries                          : BT.709
  46. Transfer characteristics                 : BT.709
  47. Matrix coefficients                      : BT.709
  48.  
  49. Audio #1
  50. ID                                       : 2
  51. Format                                   : DTS XLL
  52. Format/Info                              : Digital Theater Systems
  53. Commercial name                          : DTS-HD Master Audio
  54. Codec ID                                 : A_DTS
  55. Duration                                 : 1 h 28 min
  56. Bit rate mode                            : Variable
  57. Bit rate                                 : 1 080 kb/s
  58. Channel(s)                               : 1 channel
  59. Channel layout                           : C
  60. Sampling rate                            : 48.0 kHz
  61. Frame rate                               : 93.750 FPS (512 SPF)
  62. Bit depth                                : 24 bits
  63. Compression mode                         : Lossless
  64. Stream size                              : 685 MiB (3%)
  65. Title                                    : DTS-HD Master Audio / 1.0 / 48 kHz / 1080 kbps / 24-bit
  66. Language                                 : English
  67. Default                                  : Yes
  68. Forced                                   : No
  69.  
  70. Audio #2
  71. ID                                       : 3
  72. Format                                   : AC-3
  73. Format/Info                              : Audio Coding 3
  74. Commercial name                          : Dolby Digital
  75. Codec ID                                 : A_AC3
  76. Duration                                 : 1 h 28 min
  77. Bit rate mode                            : Constant
  78. Bit rate                                 : 96.0 kb/s
  79. Channel(s)                               : 1 channel
  80. Channel layout                           : C
  81. Sampling rate                            : 48.0 kHz
  82. Frame rate                               : 31.250 FPS (1536 SPF)
  83. Bit depth                                : 16 bits
  84. Compression mode                         : Lossy
  85. Stream size                              : 60.9 MiB (0%)
  86. Title                                    : Commentary by actors Paul Ehlers and Tony Fish, director Joe Giannone and producer Gary Sales
  87. Language                                 : English
  88. Service kind                             : Complete Main
  89. Default                                  : No
  90. Forced                                   : No
  91.  
  92. Audio #3
  93. ID                                       : 4
  94. Format                                   : AC-3
  95. Format/Info                              : Audio Coding 3
  96. Commercial name                          : Dolby Digital
  97. Codec ID                                 : A_AC3
  98. Duration                                 : 1 h 28 min
  99. Bit rate mode                            : Constant
  100. Bit rate                                 : 96.0 kb/s
  101. Channel(s)                               : 1 channel
  102. Channel layout                           : C
  103. Sampling rate                            : 48.0 kHz
  104. Frame rate                               : 31.250 FPS (1536 SPF)
  105. Bit depth                                : 16 bits
  106. Compression mode                         : Lossy
  107. Stream size                              : 60.9 MiB (0%)
  108. Title                                    : Commentary by The Hysteria Continues Podcast co-host Joseph Henson and Krueger Nation Podcast host Johnny Krueg
  109. Language                                 : English
  110. Service kind                             : Complete Main
  111. Default                                  : No
  112. Forced                                   : No
  113.  
  114. Text
  115. ID                                       : 5
  116. Format                                   : PGS
  117. Codec ID                                 : S_HDMV/PGS
  118. Codec ID/Info                            : Picture based subtitle format used on BDs/HD-DVDs
  119. Duration                                 : 1 h 26 min
  120. Bit rate                                 : 19.1 kb/s
  121. Count of elements                        : 1629
  122. Stream size                              : 11.9 MiB (0%)
  123. Title                                    : SDH
  124. Language                                 : English
  125. Default                                  : No
  126. Forced                                   : No
  127.  
  128. Menu
  129. 00:00:00.000                             : en:Chapter 1
  130. 00:11:07.041                             : en:Chapter 2
  131. 00:21:11.604                             : en:Chapter 3
  132. 00:31:52.911                             : en:Chapter 4
  133. 00:41:00.458                             : en:Chapter 5
  134. 00:58:06.233                             : en:Chapter 6
  135. 01:06:58.014                             : en:Chapter 7
  136. 01:17:23.180                             : en:Chapter 8
RAW Paste Data
We use cookies for various purposes including analytics. By continuing to use Pastebin, you agree to our use of cookies as described in the Cookies Policy. OK, I Understand
 
Top