TheRealDudeMe

Untitled

Oct 27th, 2019
274
Never
Not a member of Pastebin yet? Sign Up, it unlocks many cool features!
  1.  
  2. General
  3. Unique ID : 161386512841303655093484287342870416159 (0x7969E969C46A9FCEDE0E7D49E2B64B1F)
  4. Complete name : Opus.Zero.2019.1080p.WEB-DL.H264.AC3-EVO.mkv
  5. Format : Matroska
  6. Format version : Version 4 / Version 2
  7. File size : 2.93 GiB
  8. Duration : 1h 24mn
  9. Overall bit rate : 4 956 Kbps
  10. Encoded date : UTC 2019-10-27 23:09:09
  11. Writing application : mkvmerge v35.0.0 ('All The Love In The World') 64-bit
  12. Writing library : libebml v1.3.9 + libmatroska v1.5.2
  13.  
  14. Video
  15. ID : 2
  16. Format : AVC
  17. Format/Info : Advanced Video Codec
  18. Format profile : High@L3.2
  19. Format settings, CABAC : Yes
  20. Format settings, ReFrames : 4 frames
  21. Codec ID : V_MPEG4/ISO/AVC
  22. Duration : 1h 24mn
  23. Bit rate : 4 570 Kbps
  24. Width : 1 916 pixels
  25. Height : 654 pixels
  26. Display aspect ratio : 2.930
  27. Frame rate mode : Constant
  28. Frame rate : 23.976 fps
  29. Color space : YUV
  30. Chroma subsampling : 4:2:0
  31. Bit depth : 8 bits
  32. Scan type : Progressive
  33. Bits/(Pixel*Frame) : 0.152
  34. Stream size : 2.70 GiB (92%)
  35. Language : English
  36. Default : Yes
  37. Forced : No
  38. Color range : Limited
  39. Color primaries : BT.709
  40. Transfer characteristics : BT.709
  41. Matrix coefficients : BT.709
  42.  
  43. Audio
  44. ID : 1
  45. Format : AC-3
  46. Format/Info : Audio Coding 3
  47. Mode extension : CM (complete main)
  48. Format settings, Endianness : Big
  49. Codec ID : A_AC3
  50. Duration : 1h 24mn
  51. Bit rate mode : Constant
  52. Bit rate : 384 Kbps
  53. Channel(s) : 6 channels
  54. Channel positions : Front: L C R, Side: L R, LFE
  55. Sampling rate : 48.0 KHz
  56. Frame rate : 31.250 fps (1536 spf)
  57. Compression mode : Lossy
  58. Delay relative to video : -42ms
  59. Stream size : 232 MiB (8%)
  60. Language : English
  61. Default : Yes
  62. Forced : No
  63.  
  64. Menu
  65. 00:00:00.000 : en:Chapter 1
  66. 00:23:18.690 : en:Chapter 2
  67. 00:44:20.743 : en:Chapter 3
  68. 01:04:18.690 : en:Chapter 4
  69. 01:20:34.248 : en:Chapter 5
RAW Paste Data