SHARE
TWEET

Untitled

a guest May 7th, 2014 122 Never
Not a member of Pastebin yet? Sign Up, it unlocks many cool features!
  1. $ ffmpeg -i 1.Test.ISO -vcodec libx264 -acodec copy -sn -preset slower 1.mkv
  2. ffmpeg version 1.0.8 Copyright (c) 2000-2013 the FFmpeg developers
  3.   built on Mar 15 2014 19:06:24 with gcc 4.7.3 (Gentoo 4.7.3-r1 p1.4, pie-0.5.5)
  4.   configuration: --prefix=/usr --libdir=/usr/lib64 --shlibdir=/usr/lib64 --mandir=/usr/share/man --enable-shared --cc=x86_64-pc-linux-gnu-gcc --cxx=x86_64-pc-linux-gnu-g++ --ar=x86_64-pc-linux-gnu-ar --optflags='-march=core-avx2 -O2 -pipe' --extra-cflags='-march=core-avx2
  5.  -O2 -pipe' --extra-cxxflags='-march=core-avx2 -O2 -pipe' --disable-static --enable-gpl --enable-version3 --enable-postproc --enable-avfilter --enable-avresample --disable-stripping --disable-debug --disable-doc --disable-runtime-cpudetect --enable-libmp3lame --enable-lib
  6. vo-aacenc --enable-libtheora --enable-libx264 --enable-libxvid --enable-libfaac --enable-nonfree --disable-indev=oss --disable-indev=jack --enable-x11grab --enable-libpulse --disable-outdev=oss --enable-libass --enable-pthreads --enable-libopus --enable-libvorbis --disabl
  7. e-amd3dnow --disable-amd3dnowext --disable-altivec --disable-avx --disable-mmxext --disable-ssse3 --disable-vis --disable-neon --cpu=core-avx2 --enable-hardcoded-tables
  8.   libavutil      51. 73.101 / 51. 73.101
  9.   libavcodec     54. 59.100 / 54. 59.100
  10.   libavformat    54. 29.104 / 54. 29.104
  11.   libavdevice    54.  2.101 / 54.  2.101
  12.   libavfilter     3. 17.100 /  3. 17.100
  13.   libswscale      2.  1.101 /  2.  1.101
  14.   libswresample   0. 15.100 /  0. 15.100
  15.   libpostproc    52.  0.100 / 52.  0.100
  16. [mpeg @ 0xb63150] max_analyze_duration 5000000 reached at 5004933
  17. Truncating packet of size 61424 to 2020
  18. Input #0, mpeg, from '1.Test.ISO':
  19.   Duration: 00:00:11.93, start: 0.280633, bitrate: 1317618 kb/s
  20.     Stream #0:0[0x1e0]: Video: mpeg2video (Main), yuv420p, 720x480 [SAR 8:9 DAR 4:3], 9800 kb/s, 28.75 fps, 59.94 tbr, 90k tbn, 59.94 tbc
  21.     Stream #0:1[0x20]: Subtitle: dvd_subtitle
  22.     Stream #0:2[0x80]: Audio: ac3, 48000 Hz, stereo, s16, 192 kb/s
  23.     Stream #0:3[0x81]: Audio: ac3, 0 channels
  24.     Stream #0:4[0x1d7]: Audio: mp2, 0 channels
  25. File '1.mkv' already exists. Overwrite ? [y/N] y
  26. using SAR=8/9
  27. [libx264 @ 0xb73330] using cpu capabilities: MMX2 SSE2Fast SSSE3 SSE4.2 AVX AVX2 FMA3 LZCNT BMI2
  28. [libx264 @ 0xb73330] profile High, level 3.1
  29. [libx264 @ 0xb73330] 264 - core 142 - H.264/MPEG-4 AVC codec - Copyleft 2003-2014 - http://www.videolan.org/x264.html - options: cabac=1 ref=8 deblock=1:0:0 analyse=0x3:0x133 me=umh subme=9 psy=1 psy_rd=1.00:0.00 mixed_ref=1 me_range=16 chroma_me=1 trellis=2 8x8dct=1 cqm=
  30. 0 deadzone=21,11 fast_pskip=1 chroma_qp_offset=-2 threads=6 lookahead_threads=1 sliced_threads=0 nr=0 decimate=1 interlaced=0 bluray_compat=0 constrained_intra=0 bframes=3 b_pyramid=2 b_adapt=2 b_bias=0 direct=3 weightb=1 open_gop=0 weightp=2 keyint=250 keyint_min=25 scen
  31. ecut=40 intra_refresh=0 rc_lookahead=60 rc=crf mbtree=1 crf=23.0 qcomp=0.60 qpmin=0 qpmax=69 qpstep=4 ip_ratio=1.40 aq=1:1.00
  32. Output #0, matroska, to '1.mkv':
  33.   Metadata:
  34.     encoder         : Lavf54.29.104
  35.     Stream #0:0: Video: h264 (H264 / 0x34363248), yuv420p, 720x480 [SAR 8:9 DAR 4:3], q=-1--1, 1k tbn, 59.94 tbc
  36.     Stream #0:1: Audio: ac3 ([0] [0][0] / 0x2000), 48000 Hz, stereo, 192 kb/s
  37. Stream mapping:
  38.   Stream #0:0 -> #0:0 (mpeg2video -> libx264)
  39.   Stream #0:2 -> #0:1 (copy)
  40. Press [q] to stop, [?] for help
  41. frame=26169 fps= 23 q=-1.0 Lsize=  177609kB time=00:14:55.47 bitrate=1624.8kbits/s    
  42. video:155187kB audio:22034kB subtitle:0 global headers:0kB muxing overhead 0.219235%
  43. [libx264 @ 0xb73330] frame I:220   Avg QP:21.76  size: 51309
  44. [libx264 @ 0xb73330] frame P:7995  Avg QP:24.55  size: 11995
  45. [libx264 @ 0xb73330] frame B:17954 Avg QP:28.76  size:  2881
  46. [libx264 @ 0xb73330] consecutive B-frames:  3.1%  6.1% 30.2% 60.6%
  47. [libx264 @ 0xb73330] mb I  I16..4:  7.7% 78.0% 14.2%
  48. [libx264 @ 0xb73330] mb P  I16..4:  1.3%  4.1%  1.2%  P16..4: 40.0% 15.0% 13.1%  0.5%  0.1%    skip:24.7%
  49. [libx264 @ 0xb73330] mb B  I16..4:  0.1%  0.3%  0.1%  B16..8: 32.8%  5.7%  1.7%  direct: 2.7%  skip:56.5%  L0:41.0% L1:46.6% BI:12.5%
  50. [libx264 @ 0xb73330] 8x8 transform intra:65.5% inter:64.2%
  51. [libx264 @ 0xb73330] direct mvs  spatial:95.9% temporal:4.1%
  52. [libx264 @ 0xb73330] coded y,uvDC,uvAC intra: 72.4% 68.1% 43.7% inter: 16.3% 13.0% 1.9%
  53. [libx264 @ 0xb73330] i16 v,h,dc,p: 22% 67%  3%  8%
  54. [libx264 @ 0xb73330] i8 v,h,dc,ddl,ddr,vr,hd,vl,hu: 15% 21% 17%  5%  7%  7%  8%  7% 12%
  55. [libx264 @ 0xb73330] i4 v,h,dc,ddl,ddr,vr,hd,vl,hu:  8% 55%  5%  3%  5%  5%  6%  4%  9%
  56. [libx264 @ 0xb73330] i8c dc,h,v,p: 35% 38% 15% 13%
  57. [libx264 @ 0xb73330] Weighted P-Frames: Y:5.1% UV:3.4%
  58. [libx264 @ 0xb73330] ref P L0: 46.8% 13.6% 18.0%  5.3%  5.3%  3.7%  3.7%  2.4%  1.1%  0.0%
  59. [libx264 @ 0xb73330] ref B L0: 73.2% 12.8%  6.8%  2.7%  2.3%  1.4%  0.9%
  60. [libx264 @ 0xb73330] ref B L1: 92.0%  8.0%
  61. [libx264 @ 0xb73330] kb/s:1419.54
  62. Received signal 2: terminating.
  63.  
  64.  
  65. $ ffmpeg -i 1.mkv
  66. ffmpeg version 1.0.8 Copyright (c) 2000-2013 the FFmpeg developers
  67.   built on Mar 15 2014 19:06:24 with gcc 4.7.3 (Gentoo 4.7.3-r1 p1.4, pie-0.5.5)
  68.   configuration: --prefix=/usr --libdir=/usr/lib64 --shlibdir=/usr/lib64 --mandir=/usr/share/man --enable-shared --cc=x86_64-pc-linux-gnu-gcc --cxx=x86_64-pc-linux-gnu-g++ --ar=x86_64-pc-linux-gnu-ar --optflags='-march=core-avx2 -O2 -pipe' --extra-cflags='-march=core-avx2 -O2 -pipe' --extra-cxxflags='-march=core-avx2 -O2 -pipe' --disable-static --enable-gpl --enable-version3 --enable-postproc --enable-avfilter --enable-avresample --disable-stripping --disable-debug --disable-doc --disable-runtime-cpudetect --enable-libmp3lame --enable-libvo-aacenc --enable-libtheora --enable-libx264 --enable-libxvid --enable-libfaac --enable-nonfree --disable-indev=oss --disable-indev=jack --enable-x11grab --enable-libpulse --disable-outdev=oss --enable-libass --enable-pthreads --enable-libopus --enable-libvorbis --disable-amd3dnow --disable-amd3dnowext --disable-altivec --disable-avx --disable-mmxext --disable-ssse3 --disable-vis --disable-neon --cpu=core-avx2 --enable-hardcoded-tables
  69.   libavutil      51. 73.101 / 51. 73.101
  70.   libavcodec     54. 59.100 / 54. 59.100
  71.   libavformat    54. 29.104 / 54. 29.104
  72.   libavdevice    54.  2.101 / 54.  2.101
  73.   libavfilter     3. 17.100 /  3. 17.100
  74.   libswscale      2.  1.101 /  2.  1.101
  75.   libswresample   0. 15.100 /  0. 15.100
  76.   libpostproc    52.  0.100 / 52.  0.100
  77. Input #0, matroska,webm, from '1.mkv':
  78.   Metadata:
  79.     ENCODER         : Lavf54.29.104
  80.   Duration: 00:14:55.54, start: 0.000000, bitrate: 1624 kb/s
  81.     Stream #0:0: Video: h264 (High), yuv420p, 720x480 [SAR 8:9 DAR 4:3], 59.94 fps, 59.94 tbr, 1k tbn, 119.88 tbc (default)
  82.     Stream #0:1: Audio: ac3, 48000 Hz, stereo, s16, 192 kb/s (default)
  83. At least one output file must be specified
RAW Paste Data
We use cookies for various purposes including analytics. By continuing to use Pastebin, you agree to our use of cookies as described in the Cookies Policy. OK, I Understand
 
Top