Guest User

Untitled

a guest
Oct 4th, 2017
402
Never
Not a member of Pastebin yet? Sign Up, it unlocks many cool features!
  1. General
  2. Unique ID : 190858702591947113122412588553738903437 (0x8F960C8E55FAF19EAFFE4A753D47DF8D)
  3. Complete name : E:\Video\Smurfs.The.Lost.Village.2017.Lic.BDRip.720p.ExKinoRay.mkv
  4. Format : Matroska
  5. Format version : Version 2
  6. File size : 4.77 GiB
  7. Duration : 1 h 29 min
  8. Overall bit rate : 7 613 kb/s
  9. Encoded date : UTC 2017-10-04 16:46:16
  10. Writing application : mkvmerge v5.8.0 ('No Sleep / Pillow') built on Sep 2 2012 15:37:04
  11. Writing library : libebml v1.2.3 + libmatroska v1.3.0
  12.  
  13. Video
  14. ID : 1
  15. Format : AVC
  16. Format/Info : Advanced Video Codec
  17. Format profile : High@L4.1
  18. Format settings : CABAC / 9 Ref Frames
  19. Format settings, CABAC : Yes
  20. Format settings, RefFrames : 9 frames
  21. Muxing mode : Header stripping
  22. Codec ID : V_MPEG4/ISO/AVC
  23. Duration : 1 h 29 min
  24. Bit rate : 5 464 kb/s
  25. Width : 1 280 pixels
  26. Height : 690 pixels
  27. Display aspect ratio : 1.85:1
  28. Frame rate mode : Constant
  29. Frame rate : 23.976 (24000/1001) FPS
  30. Color space : YUV
  31. Chroma subsampling : 4:2:0
  32. Bit depth : 8 bits
  33. Scan type : Progressive
  34. Bits/(Pixel*Frame) : 0.258
  35. Stream size : 3.33 GiB (70%)
  36. Writing library : x264 core 148 r2597 e86f3a1
  37. Encoding settings : cabac=1 / ref=9 / deblock=1:0:0 / analyse=0x3:0x113 / me=umh / subme=10 / psy=1 / psy_rd=1.05:0.10 / mixed_ref=1 / me_range=32 / chroma_me=1 / trellis=2 / 8x8dct=1 / cqm=0 / deadzone=21,11 / fast_pskip=0 / chroma_qp_offset=-2 / threads=12 / lookahead_threads=1 / sliced_threads=0 / nr=0 / decimate=1 / interlaced=0 / bluray_compat=0 / constrained_intra=0 / bframes=6 / b_pyramid=2 / b_adapt=2 / b_bias=0 / direct=3 / weightb=1 / open_gop=0 / weightp=2 / keyint=250 / keyint_min=23 / scenecut=40 / intra_refresh=0 / rc=2pass / mbtree=0 / bitrate=5464 / ratetol=1.0 / qcomp=0.70 / qpmin=0 / qpmax=69 / qpstep=4 / cplxblur=20.0 / qblur=0.5 / ip_ratio=1.40 / pb_ratio=1.30 / aq=2:1.00
  38. Language : English
  39. Default : Yes
  40. Forced : No
  41.  
  42. Audio #1
  43. ID : 2
  44. Format : AC-3
  45. Format/Info : Audio Coding 3
  46. Format settings, Endianness : Big
  47. Muxing mode : Header stripping
  48. Codec ID : A_AC3
  49. Duration : 1 h 29 min
  50. Bit rate mode : Constant
  51. Bit rate : 640 kb/s
  52. Channel(s) : 6 channels
  53. Channel positions : Front: L C R, Side: L R, LFE
  54. Sampling rate : 48.0 kHz
  55. Frame rate : 31.250 FPS (1536 SPF)
  56. Bit depth : 16 bits
  57. Compression mode : Lossy
  58. Stream size : 411 MiB (8%)
  59. Title : Dub [License]
  60. Language : Russian
  61. Service kind : Complete Main
  62. Default : Yes
  63. Forced : No
  64.  
  65. Audio #2
  66. ID : 3
  67. Format : DTS
  68. Format/Info : Digital Theater Systems
  69. Mode : 16
  70. Format settings, Endianness : Big
  71. Muxing mode : Header stripping
  72. Codec ID : A_DTS
  73. Duration : 1 h 29 min
  74. Bit rate mode : Constant
  75. Bit rate : 1 509 kb/s
  76. Channel(s) : 6 channels
  77. Channel positions : Front: L C R, Side: L R, LFE
  78. Sampling rate : 48.0 kHz
  79. Frame rate : 93.750 FPS (512 SPF)
  80. Bit depth : 24 bits
  81. Compression mode : Lossy
  82. Stream size : 969 MiB (20%)
  83. Title : Original
  84. Language : English
  85. Default : No
  86. Forced : No
  87.  
  88. Text #1
  89. ID : 4
  90. Format : UTF-8
  91. Codec ID : S_TEXT/UTF8
  92. Codec ID/Info : UTF-8 Plain Text
  93. Title : Forced
  94. Language : Russian
  95. Default : Yes
  96. Forced : No
  97.  
  98. Text #2
  99. ID : 5
  100. Format : UTF-8
  101. Codec ID : S_TEXT/UTF8
  102. Codec ID/Info : UTF-8 Plain Text
  103. Title : Full
  104. Language : Russian
  105. Default : No
  106. Forced : No
  107.  
  108. Text #3
  109. ID : 6
  110. Format : UTF-8
  111. Codec ID : S_TEXT/UTF8
  112. Codec ID/Info : UTF-8 Plain Text
  113. Title : Full
  114. Language : English
  115. Default : No
  116. Forced : No
  117.  
  118. Text #4
  119. ID : 7
  120. Format : UTF-8
  121. Codec ID : S_TEXT/UTF8
  122. Codec ID/Info : UTF-8 Plain Text
  123. Title : SDH
  124. Language : English
  125. Default : No
  126. Forced : No
  127.  
  128. Text #5
  129. ID : 8
  130. Format : UTF-8
  131. Codec ID : S_TEXT/UTF8
  132. Codec ID/Info : UTF-8 Plain Text
  133. Title : SDH (Colored)
  134. Language : English
  135. Default : No
  136. Forced : No
  137.  
  138. Menu
  139. 00:00:00.000 : en:00:00:00.000
  140. 00:08:48.445 : en:00:08:48.445
  141. 00:11:03.413 : en:00:11:03.413
  142. 00:14:33.748 : en:00:14:33.748
  143. 00:21:21.071 : en:00:21:21.071
  144. 00:27:25.143 : en:00:27:25.143
  145. 00:30:33.540 : en:00:30:33.540
  146. 00:36:49.082 : en:00:36:49.082
  147. 00:42:41.350 : en:00:42:41.350
  148. 00:45:58.673 : en:00:45:58.673
  149. 00:50:35.950 : en:00:50:35.950
  150. 00:55:41.964 : en:00:55:41.964
  151. 00:57:03.587 : en:00:57:03.587
  152. 01:02:35.293 : en:01:02:35.293
  153. 01:09:07.769 : en:01:09:07.769
  154. 01:14:39.475 : en:01:14:39.475
  155. 01:19:34.478 : en:01:19:34.478
RAW Paste Data