SHARE
TWEET

Untitled

a guest Feb 8th, 2017 133 Never
Not a member of Pastebin yet? Sign Up, it unlocks many cool features!
  1. ffmpeg started on 2017-02-08 at 21:43:12
  2. Report written to "ffmpeg-20170208-214312.log"
  3. Command line:
  4. /home/pi/special/ffmpeg/ffmpeg -framerate 10 -re -i temp_video.h264 -i temp_audio.v -ab 32k -ac 2 -c:v copy -c:a aac -report -f flv rtmp://209.85.230.23/live2/xbjs-a3gp-0yvk-ftdg
  5. ffmpeg version git-2017-02-05-e57fd92 Copyright (c) 2000-2017 the FFmpeg developers
  6.   built with gcc 4.9.2 (Raspbian 4.9.2-10)
  7.   configuration: --extra-cflags=-I/opt/vc/include/IL --enable-nonfree --enable-omx-rpi --logfile=CONFIG.TXT
  8.   libavutil      55. 46.100 / 55. 46.100
  9.   libavcodec     57. 75.100 / 57. 75.100
  10.   libavformat    57. 66.101 / 57. 66.101
  11.   libavdevice    57.  2.100 / 57.  2.100
  12.   libavfilter     6. 73.100 /  6. 73.100
  13.   libswscale      4.  3.101 /  4.  3.101
  14.   libswresample   2.  4.100 /  2.  4.100
  15. Splitting the commandline.
  16. Reading option '-framerate' ... matched as AVOption 'framerate' with argument '10'.
  17. Reading option '-re' ... matched as option 're' (read input at native frame rate) with argument '1'.
  18. Reading option '-i' ... matched as input url with argument 'temp_video.h264'.
  19. Reading option '-i' ... matched as input url with argument 'temp_audio.v'.
  20. Reading option '-ab' ... matched as option 'ab' (audio bitrate (please use -b:a)) with argument '32k'.
  21. Reading option '-ac' ... matched as option 'ac' (set number of audio channels) with argument '2'.
  22. Reading option '-c:v' ... matched as option 'c' (codec name) with argument 'copy'.
  23. Reading option '-c:a' ... matched as option 'c' (codec name) with argument 'aac'.
  24. Reading option '-report' ... matched as option 'report' (generate a report) with argument '1'.
  25. Reading option '-f' ... matched as option 'f' (force format) with argument 'flv'.
  26. Reading option 'rtmp://209.85.230.23/live2/xbjs-a3gp-0yvk-ftdg' ... matched as output url.
  27. Finished splitting the commandline.
  28. Parsing a group of options: global .
  29. Applying option report (generate a report) with argument 1.
  30. Successfully parsed a group of options.
  31. Parsing a group of options: input url temp_video.h264.
  32. Applying option re (read input at native frame rate) with argument 1.
  33. Successfully parsed a group of options.
  34. Opening an input file: temp_video.h264.
  35. [file @ 0x2249dd0] Setting default whitelist 'file,crypto'
  36. [h264 @ 0x2249730] Format h264 probed with size=2048 and score=51
  37. [h264 @ 0x2249730] Before avformat_find_stream_info() pos: 0 bytes read:4096 seeks:0 nb_streams:1
  38. [h264 @ 0x224a820] nal_unit_type: 7, nal_ref_idc: 1
  39. [h264 @ 0x224a820] nal_unit_type: 8, nal_ref_idc: 1
  40. [h264 @ 0x224a820] nal_unit_type: 5, nal_ref_idc: 1
  41. [h264 @ 0x224a820] Reinit context to 1920x1088, pix_fmt: yuv420p
  42. [h264 @ 0x224a820] nal_unit_type: 1, nal_ref_idc: 1
  43. [h264 @ 0x224a820] nal_unit_type: 1, nal_ref_idc: 1
  44. [h264 @ 0x224a820] nal_unit_type: 1, nal_ref_idc: 1
  45. [h264 @ 0x224a820] nal_unit_type: 1, nal_ref_idc: 1
  46. [h264 @ 0x224a820] nal_unit_type: 1, nal_ref_idc: 1
  47. [h264 @ 0x224a820] nal_unit_type: 1, nal_ref_idc: 1
  48. [h264 @ 0x2249730] max_analyze_duration 5000000 reached at 5000000 microseconds st:0
  49. [h264 @ 0x2249730] After avformat_find_stream_info() pos: 104448 bytes read:106496 seeks:0 frames:52
  50. Input #0, h264, from 'temp_video.h264':
  51.   Duration: N/A, bitrate: N/A
  52.     Stream #0:0, 52, 1/1200000: Video: h264 (High), yuv420p(progressive), 1920x1080, 10 fps, 10 tbr, 1200k tbn, 20 tbc
  53. Successfully opened the file.
  54. Parsing a group of options: input url temp_audio.v.
  55. Successfully parsed a group of options.
  56. Opening an input file: temp_audio.v.
  57. [file @ 0x230c9f0] Setting default whitelist 'file,crypto'
  58. [wav @ 0x22f18a0] Format wav probed with size=2048 and score=99
  59. [wav @ 0x22f18a0] Before avformat_find_stream_info() pos: 44 bytes read:65580 seeks:1 nb_streams:1
  60. [wav @ 0x22f18a0] parser not found for codec pcm_s32le, packets or times may be invalid.
  61. [wav @ 0x22f18a0] parser not found for codec pcm_s32le, packets or times may be invalid.
  62. [wav @ 0x22f18a0] All info found
  63. [wav @ 0x22f18a0] Estimating duration from bitrate, this may be inaccurate
  64. [wav @ 0x22f18a0] After avformat_find_stream_info() pos: 204844 bytes read:294956 seeks:1 frames:50
  65. Guessed Channel Layout for Input Stream #1.0 : stereo
  66. Input #1, wav, from 'temp_audio.v':
  67.   Duration: 00:00:06.13, bitrate: 3072 kb/s
  68.     Stream #1:0, 50, 1/48000: Audio: pcm_s32le ([1][0][0][0] / 0x0001), 48000 Hz, stereo, s32, 3072 kb/s
  69. Successfully opened the file.
  70. Parsing a group of options: output url rtmp://209.85.230.23/live2/xbjs-a3gp-0yvk-ftdg.
  71. Applying option ab (audio bitrate (please use -b:a)) with argument 32k.
  72. Applying option ac (set number of audio channels) with argument 2.
  73. Applying option c:v (codec name) with argument copy.
  74. Applying option c:a (codec name) with argument aac.
  75. Applying option f (force format) with argument flv.
  76. Successfully parsed a group of options.
  77. Opening an output file: rtmp://209.85.230.23/live2/xbjs-a3gp-0yvk-ftdg.
  78. [rtmp @ 0x226d7c0] No default whitelist set
  79. [tcp @ 0x226dca0] No default whitelist set
  80. [rtmp @ 0x226d7c0] Handshaking...
  81. [rtmp @ 0x226d7c0] Type answer 3
  82. [rtmp @ 0x226d7c0] Server version 4.0.0.1
  83. [rtmp @ 0x226d7c0] Proto = rtmp, path = /live2/xbjs-a3gp-0yvk-ftdg, app = live2, fname = xbjs-a3gp-0yvk-ftdg
  84. [rtmp @ 0x226d7c0] Server bandwidth = 2500000
  85. [rtmp @ 0x226d7c0] Client bandwidth = 10000000
  86. [rtmp @ 0x226d7c0] New incoming chunk size = 256
  87. [rtmp @ 0x226d7c0] Releasing stream...
  88. [rtmp @ 0x226d7c0] FCPublish stream...
  89. [rtmp @ 0x226d7c0] Creating stream...
  90. [rtmp @ 0x226d7c0] Sending publish command for 'xbjs-a3gp-0yvk-ftdg'
  91. Successfully opened the file.
  92. detected 1 logical cores
  93. [graph_0_in_1_0 @ 0x226fa00] Setting 'time_base' to value '1/48000'
  94. [graph_0_in_1_0 @ 0x226fa00] Setting 'sample_rate' to value '48000'
  95. [graph_0_in_1_0 @ 0x226fa00] Setting 'sample_fmt' to value 's32'
  96. [graph_0_in_1_0 @ 0x226fa00] Setting 'channel_layout' to value '0x3'
  97. [graph_0_in_1_0 @ 0x226fa00] tb:1/48000 samplefmt:s32 samplerate:48000 chlayout:0x3
  98. [format_out_0_1 @ 0x2278260] Setting 'sample_fmts' to value 'fltp'
  99. [format_out_0_1 @ 0x2278260] Setting 'sample_rates' to value '96000|88200|64000|48000|44100|32000|24000|22050|16000|12000|11025|8000|7350'
  100. [format_out_0_1 @ 0x2278260] Setting 'channel_layouts' to value '0x3'
  101. [format_out_0_1 @ 0x2278260] auto-inserting filter 'auto_resampler_0' between the filter 'Parsed_anull_0' and the filter 'format_out_0_1'
  102. [AVFilterGraph @ 0x2249570] query_formats: 4 queried, 6 merged, 3 already done, 0 delayed
  103. [auto_resampler_0 @ 0x2279370] [SWR @ 0x22795a0] Using fltp internally between filters
  104. [auto_resampler_0 @ 0x2279370] ch:2 chl:stereo fmt:s32 r:48000Hz -> ch:2 chl:stereo fmt:fltp r:48000Hz
  105. Output #0, flv, to 'rtmp://209.85.230.23/live2/xbjs-a3gp-0yvk-ftdg':
  106.   Metadata:
  107.     encoder         : Lavf57.66.101
  108.     Stream #0:0, 0, 1/1000: Video: h264 (High) ([7][0][0][0] / 0x0007), yuv420p(progressive), 1920x1080, q=2-31, 10 fps, 10 tbr, 1k tbn, 1200k tbc
  109.     Stream #0:1, 0, 1/1000: Audio: aac (LC) ([10][0][0][0] / 0x000A), 48000 Hz, stereo, fltp, 32 kb/s
  110.     Metadata:
  111.       encoder         : Lavc57.75.100 aac
  112. Stream mapping:
  113.   Stream #0:0 -> #0:0 (copy)
  114.   Stream #1:0 -> #0:1 (pcm_s32le (native) -> aac (native))
  115. Press [q] to stop, [?] for help
  116. cur_dts is invalid (this is harmless if it occurs once at the start per stream)
  117. cur_dts is invalid (this is harmless if it occurs once at the start per stream)
  118. cur_dts is invalid (this is harmless if it occurs once at the start per stream)
  119. cur_dts is invalid (this is harmless if it occurs once at the start per stream)
  120. cur_dts is invalid (this is harmless if it occurs once at the start per stream)
  121. cur_dts is invalid (this is harmless if it occurs once at the start per stream)
  122. [flv @ 0x226a640] Timestamps are unset in a packet for stream 0. This is deprecated and will stop working in the future. Fix your code to set the timestamps properly
  123. cur_dts is invalid (this is harmless if it occurs once at the start per stream)
  124. cur_dts is invalid (this is harmless if it occurs once at the start per stream)
  125. cur_dts is invalid (this is harmless if it occurs once at the start per stream)
  126. cur_dts is invalid (this is harmless if it occurs once at the start per stream)
  127. [h264 @ 0x2249730] Thread message queue blocking; consider raising the thread_queue_size option (current value: 8)
  128. frame=    6 fps=0.0 q=-1.0 size=       4kB time=00:00:00.50 bitrate=  66.0kbits/s speed=0.999x    
  129. frame=   11 fps= 11 q=-1.0 size=      19kB time=00:00:01.00 bitrate= 154.4kbits/s speed=0.984x    
  130. frame=   13 fps=8.5 q=-1.0 size=      31kB time=00:00:01.21 bitrate= 208.6kbits/s speed=0.793x    
  131. frame=   19 fps=9.3 q=-1.0 size=      61kB time=00:00:01.80 bitrate= 275.7kbits/s speed=0.886x    
  132. frame=   22 fps=8.7 q=-1.0 size=      73kB time=00:00:02.10 bitrate= 285.8kbits/s speed=0.827x    
  133. frame=   27 fps=8.9 q=-1.0 size=      87kB time=00:00:02.60 bitrate= 272.8kbits/s speed=0.854x    
  134. frame=   33 fps=9.3 q=-1.0 size=      98kB time=00:00:03.20 bitrate= 252.0kbits/s speed= 0.9x    
  135. frame=   40 fps=9.8 q=-1.0 size=     110kB time=00:00:03.90 bitrate= 231.2kbits/s speed=0.96x    
  136. frame=   48 fps= 11 q=-1.0 size=     121kB time=00:00:04.70 bitrate= 210.5kbits/s speed=1.03x    
  137. frame=   53 fps= 10 q=-1.0 size=     127kB time=00:00:05.20 bitrate= 199.9kbits/s speed=1.03x    
  138. frame=   58 fps= 10 q=-1.0 size=     132kB time=00:00:05.70 bitrate= 190.3kbits/s speed=1.02x    
  139. frame=   63 fps= 10 q=-1.0 size=     138kB time=00:00:06.20 bitrate= 181.9kbits/s speed=1.02x    
  140. frame=   68 fps= 10 q=-1.0 size=     142kB time=00:00:06.72 bitrate= 173.0kbits/s speed=1.02x    
  141. frame=   73 fps= 10 q=-1.0 size=     146kB time=00:00:07.20 bitrate= 165.6kbits/s speed=1.02x    
  142. frame=   78 fps= 10 q=-1.0 size=     151kB time=00:00:07.72 bitrate= 160.2kbits/s speed=1.02x    
  143. frame=   83 fps= 10 q=-1.0 size=     155kB time=00:00:08.21 bitrate= 154.8kbits/s speed=1.02x    
  144. frame=   83 fps=8.9 q=-1.0 size=     156kB time=00:00:08.23 bitrate= 155.0kbits/s speed=0.879x    
  145. frame=   92 fps=9.3 q=-1.0 size=     163kB time=00:00:09.10 bitrate= 146.3kbits/s speed=0.921x    
  146. frame=   97 fps=9.3 q=-1.0 size=     167kB time=00:00:09.60 bitrate= 142.1kbits/s speed=0.923x    
  147. frame=  105 fps=9.4 q=-1.0 size=     186kB time=00:00:10.40 bitrate= 146.5kbits/s speed=0.927x    
  148. frame=  106 fps=8.8 q=-1.0 size=     209kB time=00:00:10.50 bitrate= 163.2kbits/s speed=0.875x    
  149. frame=  107 fps=8.5 q=-1.0 size=     228kB time=00:00:10.60 bitrate= 175.9kbits/s speed=0.838x    
  150. frame=  108 fps=8.0 q=-1.0 size=     270kB time=00:00:10.70 bitrate= 206.8kbits/s speed=0.794x    
  151. frame=  110 fps=7.7 q=-1.0 size=     322kB time=00:00:10.90 bitrate= 241.9kbits/s speed=0.762x    
  152. frame=  112 fps=7.6 q=-1.0 size=     402kB time=00:00:11.10 bitrate= 296.7kbits/s speed=0.749x    
  153. frame=  114 fps=7.3 q=-1.0 size=     466kB time=00:00:11.30 bitrate= 337.8kbits/s speed=0.728x    
  154. frame=  117 fps=7.1 q=-1.0 size=     648kB time=00:00:11.60 bitrate= 457.6kbits/s speed=0.701x    
  155. frame=  121 fps=7.0 q=-1.0 size=     794kB time=00:00:12.00 bitrate= 542.2kbits/s speed=0.699x    
  156. frame=  122 fps=6.9 q=-1.0 size=     918kB time=00:00:12.10 bitrate= 621.7kbits/s speed=0.68x    
  157. frame=  123 fps=6.7 q=-1.0 size=    1013kB time=00:00:12.20 bitrate= 679.9kbits/s speed=0.663x    
  158. frame=  126 fps=6.7 q=-1.0 size=    1134kB time=00:00:12.50 bitrate= 743.3kbits/s speed=0.661x    
  159. frame=  128 fps=6.6 q=-1.0 size=    1233kB time=00:00:12.70 bitrate= 795.4kbits/s speed=0.652x    
  160. frame=  132 fps=6.6 q=-1.0 size=    1313kB time=00:00:13.10 bitrate= 820.8kbits/s speed=0.655x    
  161. frame=  136 fps=6.6 q=-1.0 size=    1423kB time=00:00:13.50 bitrate= 863.7kbits/s speed=0.658x    
  162. frame=  140 fps=6.7 q=-1.0 size=    1575kB time=00:00:13.90 bitrate= 928.3kbits/s speed=0.662x    
  163. frame=  141 fps=6.6 q=-1.0 size=    1614kB time=00:00:14.00 bitrate= 944.1kbits/s speed=0.651x    
  164. frame=  143 fps=6.5 q=-1.0 size=    1694kB time=00:00:14.20 bitrate= 976.9kbits/s speed=0.643x    
  165. frame=  146 fps=6.4 q=-1.0 size=    1859kB time=00:00:14.50 bitrate=1050.3kbits/s speed=0.633x    
  166. frame=  147 fps=6.2 q=-1.0 size=    1908kB time=00:00:14.60 bitrate=1070.4kbits/s speed=0.621x    
  167. frame=  150 fps=6.2 q=-1.0 size=    2018kB time=00:00:14.90 bitrate=1109.3kbits/s speed=0.617x    
  168. frame=  152 fps=6.1 q=-1.0 size=    2163kB time=00:00:15.10 bitrate=1173.5kbits/s speed=0.605x    
  169. frame=  154 fps=6.0 q=-1.0 size=    2302kB time=00:00:15.30 bitrate=1232.5kbits/s speed=0.594x    
  170. frame=  156 fps=5.9 q=-1.0 size=    2437kB time=00:00:15.50 bitrate=1288.0kbits/s speed=0.59x    
  171. frame=  158 fps=5.9 q=-1.0 size=    2573kB time=00:00:15.70 bitrate=1342.3kbits/s speed=0.586x    
  172. frame=  161 fps=5.9 q=-1.0 size=    2678kB time=00:00:16.00 bitrate=1371.2kbits/s speed=0.586x    
  173. frame=  165 fps=5.9 q=-1.0 size=    2820kB time=00:00:16.40 bitrate=1408.6kbits/s speed=0.589x    
  174. frame=  167 fps=5.9 q=-1.0 size=    2905kB time=00:00:16.60 bitrate=1433.4kbits/s speed=0.582x    
  175. frame=  167 fps=5.6 q=-1.0 size=    2905kB time=00:00:16.60 bitrate=1433.4kbits/s speed=0.559x    
  176. frame=  169 fps=5.6 q=-1.0 size=    2986kB time=00:00:16.80 bitrate=1455.8kbits/s speed=0.557x    
  177. frame=  171 fps=5.6 q=-1.0 size=    3110kB time=00:00:17.00 bitrate=1498.4kbits/s speed=0.552x    
  178. frame=  175 fps=5.6 q=-1.0 size=    3227kB time=00:00:17.40 bitrate=1519.3kbits/s speed=0.556x    
  179. frame=  179 fps=5.6 q=-1.0 size=    3368kB time=00:00:17.80 bitrate=1550.1kbits/s speed=0.559x    
  180. frame=  181 fps=5.6 q=-1.0 size=    3439kB time=00:00:18.00 bitrate=1565.2kbits/s speed=0.554x    
  181. frame=  185 fps=5.6 q=-1.0 size=    3596kB time=00:00:18.40 bitrate=1600.7kbits/s speed=0.557x    
  182. frame=  188 fps=5.6 q=-1.0 size=    3701kB time=00:00:18.70 bitrate=1621.4kbits/s speed=0.557x    
  183. frame=  191 fps=5.6 q=-1.0 size=    3814kB time=00:00:19.00 bitrate=1644.2kbits/s speed=0.556x    
  184. frame=  194 fps=5.6 q=-1.0 size=    3927kB time=00:00:19.30 bitrate=1666.2kbits/s speed=0.557x    
  185. frame=  198 fps=5.6 q=-1.0 size=    4077kB time=00:00:19.70 bitrate=1695.5kbits/s speed=0.553x    
  186. frame=  202 fps=5.6 q=-1.0 size=    4227kB time=00:00:20.10 bitrate=1722.5kbits/s speed=0.555x    
  187. frame=  206 fps=5.6 q=-1.0 size=    4344kB time=00:00:20.50 bitrate=1735.7kbits/s speed=0.557x    
  188. frame=  208 fps=5.5 q=-1.0 size=    4407kB time=00:00:20.70 bitrate=1743.9kbits/s speed=0.55x    
  189. frame=  212 fps=5.5 q=-1.0 size=    4523kB time=00:00:21.10 bitrate=1755.8kbits/s speed=0.547x    
  190. frame=  215 fps=5.5 q=-1.0 size=    4611kB time=00:00:21.40 bitrate=1765.0kbits/s speed=0.546x    
  191. frame=  218 fps=5.5 q=-1.0 size=    4697kB time=00:00:21.70 bitrate=1773.1kbits/s speed=0.545x    
  192. frame=  221 fps=5.5 q=-1.0 size=    4773kB time=00:00:22.00 bitrate=1777.2kbits/s speed=0.544x    
  193. frame=  224 fps=5.5 q=-1.0 size=    4868kB time=00:00:22.30 bitrate=1788.0kbits/s speed=0.544x    
  194. frame=  227 fps=5.5 q=-1.0 size=    4960kB time=00:00:22.60 bitrate=1797.8kbits/s speed=0.543x    
  195. frame=  230 fps=5.4 q=-1.0 size=    5050kB time=00:00:22.90 bitrate=1806.6kbits/s speed=0.542x    
  196. frame=  234 fps=5.4 q=-1.0 size=    5184kB time=00:00:23.30 bitrate=1822.6kbits/s speed=0.542x    
  197. frame=  235 fps=5.4 q=-1.0 size=    5226kB time=00:00:23.40 bitrate=1829.3kbits/s speed=0.536x    
  198. frame=  237 fps=5.3 q=-1.0 size=    5297kB time=00:00:23.60 bitrate=1838.5kbits/s speed=0.527x    
  199. frame=  239 fps=5.3 q=-1.0 size=    5379kB time=00:00:23.80 bitrate=1851.4kbits/s speed=0.524x    
  200. frame=  241 fps=5.2 q=-1.0 size=    5458kB time=00:00:24.00 bitrate=1863.1kbits/s speed=0.521x    
  201. frame=  243 fps=5.2 q=-1.0 size=    5543kB time=00:00:24.20 bitrate=1876.2kbits/s speed=0.519x    
  202. frame=  245 fps=5.1 q=-1.0 size=    5625kB time=00:00:24.40 bitrate=1888.3kbits/s speed=0.512x    
  203. frame=  247 fps=5.1 q=-1.0 size=    5700kB time=00:00:24.60 bitrate=1898.1kbits/s speed=0.507x    
  204. frame=  249 fps=5.1 q=-1.0 size=    5779kB time=00:00:24.80 bitrate=1908.8kbits/s speed=0.504x    
  205. frame=  252 fps=5.0 q=-1.0 size=    5888kB time=00:00:25.10 bitrate=1921.6kbits/s speed=0.502x    
  206. frame=  255 fps=5.0 q=-1.0 size=    6002kB time=00:00:25.40 bitrate=1935.8kbits/s speed=0.499x    
  207. frame=  258 fps=5.0 q=-1.0 size=    6118kB time=00:00:25.70 bitrate=1949.9kbits/s speed=0.497x    
  208. frame=  260 fps=5.0 q=-1.0 size=    6190kB time=00:00:25.90 bitrate=1957.7kbits/s speed=0.496x    
  209. frame=  263 fps=5.0 q=-1.0 size=    6297kB time=00:00:26.20 bitrate=1968.9kbits/s speed=0.496x    
  210. frame=  266 fps=5.0 q=-1.0 size=    6409kB time=00:00:26.50 bitrate=1981.1kbits/s speed=0.496x    
  211. frame=  269 fps=5.0 q=-1.0 size=    6517kB time=00:00:26.80 bitrate=1992.1kbits/s speed=0.496x    
  212. frame=  270 fps=5.0 q=-1.0 size=    6554kB time=00:00:26.90 bitrate=1995.7kbits/s speed=0.494x    
  213. frame=  274 fps=4.9 q=-1.0 size=    6704kB time=00:00:27.30 bitrate=2011.5kbits/s speed=0.491x    
  214. frame=  277 fps=4.9 q=-1.0 size=    6816kB time=00:00:27.60 bitrate=2023.0kbits/s speed=0.491x    
  215. frame=  279 fps=4.9 q=-1.0 size=    6893kB time=00:00:27.80 bitrate=2031.1kbits/s speed=0.489x    
  216. frame=  282 fps=4.9 q=-1.0 size=    7006kB time=00:00:28.10 bitrate=2042.4kbits/s speed=0.489x    
  217. frame=  284 fps=4.9 q=-1.0 size=    7074kB time=00:00:28.31 bitrate=2046.9kbits/s speed=0.489x    
  218. frame=  287 fps=4.9 q=-1.0 size=    7192kB time=00:00:28.60 bitrate=2060.0kbits/s speed=0.487x    
  219. frame=  290 fps=4.9 q=-1.0 size=    7317kB time=00:00:28.90 bitrate=2074.1kbits/s speed=0.488x    
  220. frame=  293 fps=4.9 q=-1.0 size=    7437kB time=00:00:29.20 bitrate=2086.0kbits/s speed=0.488x    
  221. frame=  296 fps=4.9 q=-1.0 size=    7557kB time=00:00:29.50 bitrate=2098.6kbits/s speed=0.487x    
  222. frame=  298 fps=4.9 q=-1.0 size=    7640kB time=00:00:29.70 bitrate=2107.3kbits/s speed=0.485x    
  223. frame=  300 fps=4.9 q=-1.0 size=    7718kB time=00:00:29.91 bitrate=2113.8kbits/s speed=0.485x    
  224. frame=  303 fps=4.9 q=-1.0 size=    7854kB time=00:00:30.20 bitrate=2130.5kbits/s speed=0.484x    
  225. frame=  306 fps=4.9 q=-1.0 size=    7978kB time=00:00:30.50 bitrate=2142.7kbits/s speed=0.484x    
  226. frame=  309 fps=4.9 q=-1.0 size=    8103kB time=00:00:30.80 bitrate=2155.1kbits/s speed=0.484x    
  227. frame=  312 fps=4.8 q=-1.0 size=    8217kB time=00:00:31.10 bitrate=2164.4kbits/s speed=0.482x    
  228. frame=  315 fps=4.8 q=-1.0 size=    8339kB time=00:00:31.40 bitrate=2175.4kbits/s speed=0.482x    
  229. frame=  318 fps=4.8 q=-1.0 size=    8457kB time=00:00:31.70 bitrate=2185.5kbits/s speed=0.483x    
  230. frame=  322 fps=4.9 q=-1.0 size=    8615kB time=00:00:32.12 bitrate=2196.5kbits/s speed=0.485x    
  231. frame=  326 fps=4.9 q=-1.0 size=    8725kB time=00:00:32.50 bitrate=2199.2kbits/s speed=0.487x    
  232. frame=  330 fps=4.9 q=-1.0 size=    8853kB time=00:00:32.90 bitrate=2204.4kbits/s speed=0.486x    
  233. frame=  333 fps=4.9 q=-1.0 size=    8950kB time=00:00:33.20 bitrate=2208.3kbits/s speed=0.484x    
  234. frame=  336 fps=4.8 q=-1.0 size=    9058kB time=00:00:33.50 bitrate=2214.9kbits/s speed=0.483x    
  235. frame=  339 fps=4.8 q=-1.0 size=    9151kB time=00:00:33.80 bitrate=2217.8kbits/s speed=0.483x    
  236. frame=  342 fps=4.8 q=-1.0 size=    9246kB time=00:00:34.10 bitrate=2221.2kbits/s speed=0.483x    
  237. frame=  345 fps=4.8 q=-1.0 size=    9341kB time=00:00:34.40 bitrate=2224.3kbits/s speed=0.483x    
  238. frame=  348 fps=4.9 q=-1.0 size=    9435kB time=00:00:34.70 bitrate=2227.3kbits/s speed=0.484x    
  239. [flv @ 0x226a640] Failed to update header with correct duration.
  240. [flv @ 0x226a640] Failed to update header with correct filesize.
  241. frame=  348 fps=4.8 q=-1.0 Lsize=    9465kB time=00:00:34.77 bitrate=2229.9kbits/s speed=0.484x    
  242. video:9292kB audio:140kB subtitle:0kB other streams:0kB global headers:0kB muxing overhead: 0.363469%
  243. Input file #0 (temp_video.h264):
  244.   Input stream #0:0 (video): 348 packets read (9514510 bytes);
  245.   Total: 348 packets (9514510 bytes) demuxed
  246. Input file #1 (temp_audio.v):
  247.   Input stream #1:0 (audio): 3260 packets read (13352960 bytes); 3260 frames decoded (1669120 samples);
  248.   Total: 3260 packets (13352960 bytes) demuxed
  249. Output file #0 (rtmp://209.85.230.23/live2/xbjs-a3gp-0yvk-ftdg):
  250.   Output stream #0:0 (video): 348 packets muxed (9514510 bytes);
  251.   Output stream #0:1 (audio): 1630 frames encoded (1669120 samples); 1631 packets muxed (142997 bytes);
  252.   Total: 1979 packets (9657507 bytes) muxed
  253. 3260 frames successfully decoded, 0 decoding errors
  254. [AVIOContext @ 0x226ea30] Statistics: 0 seeks, 2171 writeouts
  255. [rtmp @ 0x226d7c0] UnPublishing stream...
  256. [rtmp @ 0x226d7c0] Deleting stream...
  257. [aac @ 0x226cfc0] Qavg: 516.253
  258. [AVIOContext @ 0x2251fa0] Statistics: 9826304 bytes read, 0 seeks
  259. [AVIOContext @ 0x230c8e0] Statistics: 13467692 bytes read, 1 seeks
  260. Exiting normally, received signal 2.
RAW Paste Data
We use cookies for various purposes including analytics. By continuing to use Pastebin, you agree to our use of cookies as described in the Cookies Policy. OK, I Understand
 
Top