SHARE
TWEET

Untitled

Secasa Apr 21st, 2017 2 Never
Not a member of Pastebin yet? Sign Up, it unlocks many cool features!
  1. Format                                   : Matroska
  2. Format version                           : Version 2
  3. File size                                : 10.6 GiB
  4. Duration                                 : 1h 55mn
  5. Overall bit rate                         : 13.2 Mbps
  6. Encoded date                             : UTC 2017-04-20 22:35:22
  7. Writing application                      : mkvmerge v5.3.0 ('I could have danced') built on Feb  9 2012 10:38:07
  8. Writing library                          : libebml v1.2.3 + libmatroska v1.3.0
  9.  
  10. Video
  11. ID                                       : 1
  12. Format                                   : AVC
  13. Format/Info                              : Advanced Video Codec
  14. Format profile                           : High@L4.1
  15. Format settings, CABAC                   : Yes
  16. Format settings, ReFrames                : 4 frames
  17. Codec ID                                 : V_MPEG4/ISO/AVC
  18. Duration                                 : 1h 55mn
  19. Bit rate                                 : 11.0 Mbps
  20. Width                                    : 1 920 pixels
  21. Height                                   : 1 036 pixels
  22. Display aspect ratio                     : 1.85:1
  23. Frame rate mode                          : Constant
  24. Frame rate                               : 24.000 fps
  25. Color space                              : YUV
  26. Chroma subsampling                       : 4:2:0
  27. Bit depth                                : 8 bits
  28. Scan type                                : Progressive
  29. Bits/(Pixel*Frame)                       : 0.230
  30. Stream size                              : 8.84 GiB (83%)
  31. Writing library                          : x264 core 148 r2638 7599210
  32. Encoding settings                        : cabac=1 / ref=4 / deblock=1:-3:-3 / analyse=0x3:0x133 / me=umh / subme=11 / psy=1 / psy_rd=1.05:0.00 / mixed_ref=1 / me_range=32 / chroma_me=1 / trellis=2 / 8x8dct=1 / cqm=0 / deadzone=21,11 / fast_pskip=0 / chroma_qp_offset=-4 / threads=12 / lookahead_threads=3 / sliced_threads=0 / nr=0 / decimate=1 / interlaced=0 / bluray_compat=0 / constrained_intra=0 / bframes=11 / b_pyramid=2 / b_adapt=2 / b_bias=0 / direct=2 / weightb=1 / open_gop=0 / weightp=2 / keyint=240 / keyint_min=23 / scenecut=40 / intra_refresh=0 / rc_lookahead=60 / rc=crf / mbtree=0 / crf=17.0 / qcomp=0.60 / qpmin=0 / qpmax=69 / qpstep=4 / vbv_maxrate=62500 / vbv_bufsize=78125 / crf_max=0.0 / nal_hrd=none / filler=0 / ip_ratio=1.30 / pb_ratio=1.20 / aq=2:0.80
  33. Language                                 : Spanish
  34. Default                                  : Yes
  35. Forced                                   : Yes
  36.  
  37. Audio #1
  38. ID                                       : 2
  39. Format                                   : AC-3
  40. Format/Info                              : Audio Coding 3
  41. Mode extension                           : CM (complete main)
  42. Format settings, Endianness              : Big
  43. Codec ID                                 : A_AC3
  44. Duration                                 : 1h 55mn
  45. Bit rate mode                            : Constant
  46. Bit rate                                 : 448 Kbps
  47. Channel count                            : 6 channels
  48. Channel positions                        : Front: L C R, Side: L R, LFE
  49. Sampling rate                            : 48.0 KHz
  50. Bit depth                                : 16 bits
  51. Compression mode                         : Lossy
  52. Stream size                              : 369 MiB (3%)
  53. Language                                 : Spanish
  54. Default                                  : Yes
  55. Forced                                   : Yes
  56.  
  57. Audio #2
  58. ID                                       : 3
  59. Format                                   : DTS
  60. Format/Info                              : Digital Theater Systems
  61. Mode                                     : 16
  62. Format settings, Endianness              : Big
  63. Codec ID                                 : A_DTS
  64. Duration                                 : 1h 55mn
  65. Bit rate mode                            : Constant
  66. Bit rate                                 : 1 509 Kbps
  67. Channel count                            : 6 channels
  68. Channel positions                        : Front: L C R, Side: L R, LFE
  69. Sampling rate                            : 48.0 KHz
  70. Bit depth                                : 16 bits
  71. Compression mode                         : Lossy
  72. Stream size                              : 1.21 GiB (11%)
  73. Language                                 : French
  74. Default                                  : No
  75. Forced                                   : No
  76.  
  77. Text #1
  78. ID                                       : 4
  79. Format                                   : UTF-8
  80. Codec ID                                 : S_TEXT/UTF8
  81. Codec ID/Info                            : UTF-8 Plain Text
  82. Title                                    : Forzados
  83. Language                                 : Spanish
  84. Default                                  : Yes
  85. Forced                                   : No
  86.  
  87. Text #2
  88. ID                                       : 5
  89. Format                                   : UTF-8
  90. Codec ID                                 : S_TEXT/UTF8
  91. Codec ID/Info                            : UTF-8 Plain Text
  92. Language                                 : Spanish
  93. Default                                  : No
  94. Forced                                   : No
  95.  
  96. Text #3
  97. ID                                       : 6
  98. Format                                   : UTF-8
  99. Codec ID                                 : S_TEXT/UTF8
  100. Codec ID/Info                            : UTF-8 Plain Text
  101. Language                                 : French
  102. Default                                  : No
  103. Forced                                   : No
  104.  
  105. Menu
  106. 00:00:00.000                             : fr:00:00:00.000
  107. 00:08:22.250                             : fr:00:08:22.250
  108. 00:19:05.792                             : fr:00:19:05.792
  109. 00:28:21.333                             : fr:00:28:21.333
  110. 00:39:43.333                             : fr:00:39:43.333
  111. 00:43:58.167                             : fr:00:43:58.167
  112. 00:52:56.667                             : fr:00:52:56.667
  113. 01:03:54.542                             : fr:01:03:54.542
  114. 01:12:05.333                             : fr:01:12:05.333
  115. 01:21:44.875                             : fr:01:21:44.875
  116. 01:33:04.458                             : fr:01:33:04.458
  117. 01:41:05.917                             : fr:01:41:05.917
RAW Paste Data
Top