SHARE
TWEET

LTJ Bukem - Progression Sessions 10 [Instrumental]

soberski Sep 6th, 2012 146 Never
Not a member of Pastebin yet? Sign Up, it unlocks many cool features!
  1. REM GENRE Drum & BAss
  2. REM DATE 2004
  3. PERFORMER "LTJ Bukem"
  4. TITLE "Progression Sessions 10 [Instrumental]"
  5. FILE "LTJ Bukem - Progression Sessions 10 [Instrumental].mp3" WAVE
  6.   TRACK 01 AUDIO
  7.     TITLE "Organ Tune"
  8.     PERFORMER "Greg Packer"
  9.     INDEX 01 00:00:00
  10.   TRACK 02 AUDIO
  11.     TITLE "Eastern Dub"
  12.     PERFORMER "Makoto & DJ Inza"
  13.     INDEX 01 03:14:34
  14.   TRACK 03 AUDIO
  15.     TITLE "Golden Girl"
  16.     PERFORMER "MC Conrad & Makoto"
  17.     INDEX 01 07:54:25
  18.   TRACK 04 AUDIO
  19.     TITLE "This Is Soul Mine"
  20.     PERFORMER "Kymera"
  21.     INDEX 01 12:44:64
  22.   TRACK 05 AUDIO
  23.     TITLE "No Way Back"
  24.     PERFORMER "Stress Level & TC 1"
  25.     INDEX 01 17:35:23
  26.   TRACK 06 AUDIO
  27.     TITLE "Burning"
  28.     PERFORMER "Catch 22"
  29.     INDEX 01 22:04:29
  30.   TRACK 07 AUDIO
  31.     TITLE "Era Soul"
  32.     PERFORMER "Basic Operations"
  33.     INDEX 01 26:01:00
  34.   TRACK 08 AUDIO
  35.     TITLE "Shootout"
  36.     PERFORMER "Ill Logic & Raf"
  37.     INDEX 01 30:56:36
  38.   TRACK 09 AUDIO
  39.     TITLE "Rub A Dub"
  40.     PERFORMER "Mathematics Vs. Tactile"
  41.     INDEX 01 36:24:08
  42.   TRACK 10 AUDIO
  43.     TITLE "Promise"
  44.     PERFORMER "Makoto"
  45.     INDEX 01 40:41:58
  46.   TRACK 11 AUDIO
  47.     TITLE "Splashdown"
  48.     PERFORMER "ICR"
  49.     INDEX 01 45:31:30
  50.   TRACK 12 AUDIO
  51.     TITLE "Survival"
  52.     PERFORMER "Catch 22"
  53.     INDEX 01 50:07:57
  54.   TRACK 13 AUDIO
  55.     TITLE "Brotherhood"
  56.     PERFORMER "Catch 22"
  57.     INDEX 01 55:20:34
  58.   TRACK 14 AUDIO
  59.     TITLE "Let Me Love You"
  60.     PERFORMER "Makoto & Bun"
  61.     INDEX 01 59:35:08
RAW Paste Data
We use cookies for various purposes including analytics. By continuing to use Pastebin, you agree to our use of cookies as described in the Cookies Policy. OK, I Understand
Top