Guest User

[Cleo] Kaze no Stigma E01

a guest
Dec 1st, 2017
238
Never
Not a member of Pastebin yet? Sign Up, it unlocks many cool features!
  1. General
  2. Unique ID : 223576341219629047256134592416196665166 (0xA8333CAEBA717C6188C44C80753D1F4E)
  3. Complete name : [Cleo]Kaze_no_Stigma_-_01_(Dual Audio_10bit_DVD480p_x265).mkv
  4. Format : Matroska
  5. Format version : Version 4 / Version 2
  6. File size : 131 MiB
  7. Duration : 24 min 12 s
  8. Overall bit rate : 759 kb/s
  9. Movie name : Kaze no Stigma E01: The Wind Returns
  10. Encoded date : UTC 2017-11-12 06:01:42
  11. Writing application : mkvmerge v15.0.0 ('Duel with the Devil') 64-bit
  12. Writing library : libebml v1.3.5 + libmatroska v1.4.5
  13. Attachments : 123Marker.ttf / 40240___.ttf / CronosPro-SemiboldDisp_0.otf / lvnm.ttf / Sansation_Regular.ttf / SpkHy_.ttf
  14.  
  15. Video
  16. ID : 1
  17. Format : HEVC
  18. Format/Info : High Efficiency Video Coding
  19. Format profile : Main 10@L6.2@High
  20. Codec ID : V_MPEGH/ISO/HEVC
  21. Duration : 24 min 12 s
  22. Bit rate : 561 kb/s
  23. Width : 864 pixels
  24. Height : 480 pixels
  25. Display aspect ratio : 16:9
  26. Frame rate mode : Constant
  27. Frame rate : 23.976 (24000/1001) FPS
  28. Color space : YUV
  29. Chroma subsampling : 4:2:0
  30. Bit depth : 10 bits
  31. Bits/(Pixel*Frame) : 0.056
  32. Stream size : 97.2 MiB (74%)
  33. Writing library : x265 2.5+14-2718cb5dd67f:[Windows][GCC 7.1.0][64 bit] 10bit
  34. Encoding settings : cpuid=1050111 / frame-threads=3 / numa-pools=8 / wpp / no-pmode / no-pme / no-psnr / no-ssim / log-level=2 / input-csp=1 / input-res=864x480 / interlace=0 / total-frames=34814 / level-idc=62 / high-tier=1 / uhd-bd=0 / ref=3 / no-allow-non-conformance / no-repeat-headers / annexb / no-aud / no-hrd / info / hash=0 / no-temporal-layers / open-gop / min-keyint=23 / keyint=250 / bframes=4 / b-adapt=2 / b-pyramid / bframe-bias=0 / rc-lookahead=20 / lookahead-slices=0 / scenecut=40 / no-intra-refresh / ctu=64 / min-cu-size=8 / no-rect / no-amp / max-tu-size=32 / tu-inter-depth=1 / tu-intra-depth=1 / limit-tu=0 / rdoq-level=0 / dynamic-rd=0.00 / no-ssim-rd / signhide / no-tskip / nr-intra=0 / nr-inter=0 / no-constrained-intra / strong-intra-smoothing / max-merge=2 / limit-refs=3 / no-limit-modes / me=1 / subme=2 / merange=57 / temporal-mvp / weightp / no-weightb / no-analyze-src-pics / deblock=0:0 / sao / no-sao-non-deblock / rd=3 / no-early-skip / rskip / no-fast-intra / no-tskip-fast / no-cu-lossless / no-b-intra / no-splitrd-skip / rdpenalty=0 / psy-rd=2.00 / psy-rdoq=0.00 / no-rd-refine / analysis-reuse-mode=0 / no-lossless / cbqpoffs=0 / crqpoffs=0 / rc=crf / crf=20.0 / qcomp=0.60 / qpstep=4 / stats-write=0 / stats-read=0 / vbv-maxrate=800000 / vbv-bufsize=800000 / vbv-init=0.9 / crf-max=0.0 / crf-min=0.0 / ipratio=1.40 / pbratio=1.30 / aq-mode=2 / aq-strength=1.00 / cutree / zone-count=0 / no-strict-cbr / qg-size=32 / no-rc-grain / qpmax=69 / qpmin=0 / no-const-vbv / sar=0 / overscan=0 / videoformat=5 / range=0 / colorprim=2 / transfer=2 / colormatrix=2 / chromaloc=0 / display-window=0 / max-cll=0,0 / min-luma=0 / max-luma=1023 / log2-max-poc-lsb=8 / vui-timing-info / vui-hrd-info / slices=1 / opt-qp-pps / opt-ref-list-length-pps / no-multi-pass-opt-rps / scenecut-bias=0.05 / no-opt-cu-delta-qp / no-aq-motion / no-hdr / no-hdr-opt / no-dhdr10-opt / analysis-reuse-level=5 / scale-factor=0 / refine-intra=0 / refine-inter=0 / refine-mv=0 / no-limit-sao / ctu-info=0
  35. Default : Yes
  36. Forced : No
  37.  
  38. Audio #1
  39. ID : 2
  40. Format : AAC
  41. Format/Info : Advanced Audio Codec
  42. Format profile : LC
  43. Codec ID : A_AAC-2
  44. Duration : 24 min 11 s
  45. Bit rate : 91.5 kb/s
  46. Channel(s) : 2 channels
  47. Channel positions : Front: L R
  48. Sampling rate : 48.0 kHz
  49. Frame rate : 46.875 FPS (1024 SPF)
  50. Compression mode : Lossy
  51. Delay relative to video : 9 ms
  52. Stream size : 15.8 MiB (12%)
  53. Language : English
  54. Default : Yes
  55. Forced : No
  56.  
  57. Audio #2
  58. ID : 3
  59. Format : AAC
  60. Format/Info : Advanced Audio Codec
  61. Format profile : LC
  62. Codec ID : A_AAC-2
  63. Duration : 24 min 11 s
  64. Bit rate : 98.8 kb/s
  65. Channel(s) : 2 channels
  66. Channel positions : Front: L R
  67. Sampling rate : 48.0 kHz
  68. Frame rate : 46.875 FPS (1024 SPF)
  69. Compression mode : Lossy
  70. Delay relative to video : 9 ms
  71. Stream size : 17.1 MiB (13%)
  72. Language : Japanese
  73. Default : No
  74. Forced : No
  75.  
  76. Text #1
  77. ID : 4
  78. Format : ASS
  79. Codec ID : S_TEXT/ASS
  80. Codec ID/Info : Advanced Sub Station Alpha
  81. Duration : 23 min 47 s
  82. Bit rate : 16 b/s
  83. Count of elements : 41
  84. Compression mode : Lossless
  85. Stream size : 2.84 KiB (0%)
  86. Language : English
  87. Default : Yes
  88. Forced : Yes
  89.  
  90. Text #2
  91. ID : 5
  92. Format : ASS
  93. Codec ID : S_TEXT/ASS
  94. Codec ID/Info : Advanced Sub Station Alpha
  95. Duration : 24 min 8 s
  96. Bit rate : 104 b/s
  97. Count of elements : 334
  98. Compression mode : Lossless
  99. Stream size : 18.5 KiB (0%)
  100. Language : English
  101. Default : No
  102. Forced : No
  103.  
  104. Text #3
  105. ID : 6
  106. Format : VobSub
  107. Muxing mode : zlib
  108. Codec ID : S_VOBSUB
  109. Codec ID/Info : Picture based subtitle format used on DVDs
  110. Duration : 23 min 18 s
  111. Bit rate : 320 b/s
  112. Count of elements : 19
  113. Stream size : 54.7 KiB (0%)
  114. Language : English
  115. Default : No
  116. Forced : No
  117.  
  118. Text #4
  119. ID : 7
  120. Format : VobSub
  121. Muxing mode : zlib
  122. Codec ID : S_VOBSUB
  123. Codec ID/Info : Picture based subtitle format used on DVDs
  124. Duration : 24 min 8 s
  125. Bit rate : 5 094 b/s
  126. Count of elements : 324
  127. Stream size : 901 KiB (1%)
  128. Language : English
  129. Default : No
  130. Forced : No
  131.  
  132. Menu
  133. 00:00:00.000 : :Intro
  134. 00:00:16.016 : :OP
  135. 00:01:46.064 : :Episode
  136. 00:22:11.081 : :ED
  137. 00:23:41.088 : :Preview
RAW Paste Data