daily pastebin goal
20%
SHARE
TWEET

Untitled

Secasa Dec 7th, 2017 3 Never
Not a member of Pastebin yet? Sign Up, it unlocks many cool features!
  1. Format                                   : Matroska
  2. Format version                           : Version 2
  3. File size                                : 7.42 GiB
  4. Duration                                 : 1h 30mn
  5. Overall bit rate mode                    : Variable
  6. Overall bit rate                         : 11.8 Mbps
  7. Encoded date                             : UTC 2017-12-06 21:45:18
  8. Writing application                      : mkvmerge v5.3.0 ('I could have danced') built on Feb  9 2012 10:38:07
  9. Writing library                          : libebml v1.2.3 + libmatroska v1.3.0
  10.  
  11. Video
  12. ID                                       : 1
  13. Format                                   : AVC
  14. Format/Info                              : Advanced Video Codec
  15. Format profile                           : High@L4.0
  16. Format settings, CABAC                   : Yes
  17. Format settings, ReFrames                : 4 frames
  18. Codec ID                                 : V_MPEG4/ISO/AVC
  19. Duration                                 : 1h 30mn
  20. Bit rate mode                            : Variable
  21. Bit rate                                 : 10.3 Mbps
  22. Maximum bit rate                         : 15.0 Mbps
  23. Width                                    : 1 920 pixels
  24. Height                                   : 1 080 pixels
  25. Display aspect ratio                     : 16:9
  26. Frame rate mode                          : Constant
  27. Frame rate                               : 23.976 fps
  28. Color space                              : YUV
  29. Chroma subsampling                       : 4:2:0
  30. Bit depth                                : 8 bits
  31. Scan type                                : Progressive
  32. Bits/(Pixel*Frame)                       : 0.207
  33. Stream size                              : 6.47 GiB (87%)
  34. Language                                 : Spanish
  35. Default                                  : Yes
  36. Forced                                   : No
  37. Color primaries                          : BT.709
  38. Transfer characteristics                 : BT.709
  39. Matrix coefficients                      : BT.709
  40.  
  41. Audio #1
  42. ID                                       : 2
  43. Format                                   : AC-3
  44. Format/Info                              : Audio Coding 3
  45. Mode extension                           : CM (complete main)
  46. Format settings, Endianness              : Big
  47. Codec ID                                 : A_AC3
  48. Duration                                 : 1h 30mn
  49. Bit rate mode                            : Constant
  50. Bit rate                                 : 640 Kbps
  51. Channel count                            : 6 channels
  52. Channel positions                        : Front: L C R, Side: L R, LFE
  53. Sampling rate                            : 48.0 KHz
  54. Bit depth                                : 16 bits
  55. Compression mode                         : Lossy
  56. Stream size                              : 412 MiB (5%)
  57. Language                                 : Spanish
  58. Default                                  : Yes
  59. Forced                                   : No
  60.  
  61. Audio #2
  62. ID                                       : 3
  63. Format                                   : AC-3
  64. Format/Info                              : Audio Coding 3
  65. Mode extension                           : CM (complete main)
  66. Format settings, Endianness              : Big
  67. Codec ID                                 : A_AC3
  68. Duration                                 : 1h 30mn
  69. Bit rate mode                            : Constant
  70. Bit rate                                 : 640 Kbps
  71. Channel count                            : 6 channels
  72. Channel positions                        : Front: L C R, Side: L R, LFE
  73. Sampling rate                            : 48.0 KHz
  74. Bit depth                                : 16 bits
  75. Compression mode                         : Lossy
  76. Stream size                              : 412 MiB (5%)
  77. Language                                 : English
  78. Default                                  : No
  79. Forced                                   : No
  80.  
  81. Text
  82. ID                                       : 4
  83. Format                                   : UTF-8
  84. Codec ID                                 : S_TEXT/UTF8
  85. Codec ID/Info                            : UTF-8 Plain Text
  86. Language                                 : English
  87. Default                                  : No
  88. Forced                                   : No
RAW Paste Data
We use cookies for various purposes including analytics. By continuing to use Pastebin, you agree to our use of cookies as described in the Cookies Policy. OK, I Understand
 
Top