Guest User

njksajkae01

a guest
Mar 5th, 2018
85
Never
Not a member of Pastebin yet? Sign Up, it unlocks many cool features!
  1. General
  2. Unique ID : 190225595902847798572399354097786319947 (0x8F1C1DFC7B665A83820098937B56744B)
  3. Complete name : [Cleo]ef_A_Tale_of_Memories_-_01_(Dual Audio_10bit_BD1080p_x265).mkv
  4. Format : Matroska
  5. Format version : Version 2
  6. File size : 205 MiB
  7. Duration : 23 min 46 s
  8. Overall bit rate : 1 203 kb/s
  9. Encoded date : UTC 2017-09-23 17:19:06
  10. Writing application : mkvmerge v10.0.0 ('To Drown In You') 64bit
  11. Writing library : libebml v1.3.4 + libmatroska v1.4.5
  12.  
  13. Video
  14. ID : 1
  15. Format : HEVC
  16. Format/Info : High Efficiency Video Coding
  17. Format profile : Main 10@L4@Main
  18. Codec ID : V_MPEGH/ISO/HEVC
  19. Duration : 23 min 45 s
  20. Bit rate : 999 kb/s
  21. Width : 1 920 pixels
  22. Height : 1 080 pixels
  23. Display aspect ratio : 16:9
  24. Frame rate mode : Constant
  25. Frame rate : 23.976 (24000/1001) FPS
  26. Color space : YUV
  27. Chroma subsampling : 4:2:0
  28. Bit depth : 10 bits
  29. Bits/(Pixel*Frame) : 0.020
  30. Stream size : 170 MiB (83%)
  31. Writing library : x265 2.4+14-bc0e9bd7c08f5ddc:[Windows][GCC 6.3.0][64 bit] 10bit: KG7x [x265.ru]
  32. Encoding settings : cpuid=1050111 / frame-threads=3 / numa-pools=8 / wpp / no-pmode / no-pme / no-psnr / no-ssim / log-level=2 / input-csp=1 / input-res=1920x1080 / interlace=0 / total-frames=34176 / level-idc=0 / high-tier=1 / uhd-bd=0 / ref=3 / no-allow-non-conformance / no-repeat-headers / annexb / no-aud / no-hrd / info / hash=0 / no-temporal-layers / open-gop / min-keyint=23 / keyint=250 / bframes=4 / b-adapt=2 / b-pyramid / bframe-bias=0 / rc-lookahead=20 / lookahead-slices=6 / scenecut=40 / no-intra-refresh / ctu=64 / min-cu-size=8 / no-rect / no-amp / max-tu-size=32 / tu-inter-depth=1 / tu-intra-depth=1 / limit-tu=0 / rdoq-level=0 / dynamic-rd=0.00 / no-ssim-rd / signhide / no-tskip / nr-intra=0 / nr-inter=0 / no-constrained-intra / strong-intra-smoothing / max-merge=2 / limit-refs=3 / no-limit-modes / me=1 / subme=2 / merange=57 / temporal-mvp / weightp / no-weightb / no-analyze-src-pics / deblock=0:0 / sao / no-sao-non-deblock / rd=3 / no-early-skip / rskip / no-fast-intra / no-tskip-fast / no-cu-lossless / no-b-intra / rdpenalty=0 / psy-rd=2.00 / psy-rdoq=0.00 / no-rd-refine / analysis-mode=0 / no-lossless / cbqpoffs=0 / crqpoffs=0 / rc=crf / crf=23.0 / qcomp=0.60 / qpstep=4 / stats-write=0 / stats-read=0 / ipratio=1.40 / pbratio=1.30 / aq-mode=1 / aq-strength=1.00 / cutree / zone-count=0 / no-strict-cbr / qg-size=32 / no-rc-grain / qpmax=69 / qpmin=0 / sar=1 / overscan=0 / videoformat=5 / range=0 / colorprim=2 / transfer=2 / colormatrix=2 / chromaloc=0 / display-window=0 / max-cll=0,0 / min-luma=0 / max-luma=1023 / log2-max-poc-lsb=8 / vui-timing-info / vui-hrd-info / slices=1 / opt-qp-pps / opt-ref-list-length-pps / no-multi-pass-opt-rps / scenecut-bias=0.05 / no-opt-cu-delta-qp / no-aq-motion / no-hdr / no-hdr-opt / no-dhdr10-opt / refine-level=5 / no-limit-sao / ctu-info=0
  33. Default : Yes
  34. Forced : No
  35.  
  36. Audio #1
  37. ID : 2
  38. Format : AAC
  39. Format/Info : Advanced Audio Codec
  40. Format profile : LC
  41. Codec ID : A_AAC-2
  42. Duration : 23 min 46 s
  43. Bit rate : 99.6 kb/s
  44. Channel(s) : 2 channels
  45. Channel positions : Front: L R
  46. Sampling rate : 48.0 kHz
  47. Frame rate : 46.875 FPS (1024 SPF)
  48. Compression mode : Lossy
  49. Delay relative to video : 9 ms
  50. Stream size : 16.9 MiB (8%)
  51. Language : English
  52. Default : Yes
  53. Forced : No
  54.  
  55. Audio #2
  56. ID : 3
  57. Format : AAC
  58. Format/Info : Advanced Audio Codec
  59. Format profile : LC
  60. Codec ID : A_AAC-2
  61. Duration : 23 min 46 s
  62. Bit rate : 102 kb/s
  63. Channel(s) : 2 channels
  64. Channel positions : Front: L R
  65. Sampling rate : 48.0 kHz
  66. Frame rate : 46.875 FPS (1024 SPF)
  67. Compression mode : Lossy
  68. Delay relative to video : 9 ms
  69. Stream size : 17.3 MiB (8%)
  70. Language : Japanese
  71. Default : No
  72. Forced : No
  73.  
  74. Text
  75. ID : 4
  76. Format : UTF-8
  77. Codec ID : S_TEXT/UTF8
  78. Codec ID/Info : UTF-8 Plain Text
  79. Duration : 23 min 33 s
  80. Bit rate : 57 b/s
  81. Count of elements : 336
  82. Stream size : 9.90 KiB (0%)
  83. Language : English
  84. Default : Yes
  85. Forced : No
RAW Paste Data