SHARE
TWEET

LaLaLand_UHD

iMN0 Jun 21st, 2017 314 Never
Not a member of Pastebin yet? Sign Up, it unlocks many cool features!
  1. General
  2. Unique ID                                : 201947865928826871345718816725710678110 (0x97EDBE852F5FB7F796CBD5E8ACBC285E)
  3. Format                                   : Matroska
  4. Format version                           : Version 4 / Version 2
  5. File size                                : 11.5 GiB
  6. Duration                                 : 2 h 7 min
  7. Overall bit rate                         : 12.9 Mb/s
  8. Encoded date                             : UTC 2017-06-20 02:43:05
  9. Writing application                      : mkvmerge v9.6.0 ('Slave To Your Mind') 64bit
  10. Writing library                          : libebml v1.3.4 + libmatroska v1.4.5
  11.  
  12. Video
  13. ID                                       : 1
  14. Format                                   : HEVC
  15. Format/Info                              : High Efficiency Video Coding
  16. Format profile                           : Main 10@L5@Main
  17. Codec ID                                 : V_MPEGH/ISO/HEVC
  18. Duration                                 : 2 h 7 min
  19. Bit rate                                 : 12.0 Mb/s
  20. Width                                    : 3 840 pixels
  21. Height                                   : 1 504 pixels
  22. Display aspect ratio                     : 2.553
  23. Frame rate mode                          : Constant
  24. Frame rate                               : 23.976 (24000/1001) FPS
  25. Original frame rate                      : 23.976 (23976/1000) FPS
  26. Color space                              : YUV
  27. Chroma subsampling                       : 4:2:0
  28. Bit depth                                : 10 bits
  29. Bits/(Pixel*Frame)                       : 0.087
  30. Stream size                              : 10.7 GiB (93%)
  31. Title                                    : HEVC x265 10bit HDR BT2020 Video / 8000 kbps / 2160p / 23.976 fps / Main 10 Profile 5
  32. Writing library                          : x265 1.9:[Linux][GCC 4.6.2][64 bit] 10bit
  33. Encoding settings                        : wpp / ctu=64 / min-cu-size=8 / max-tu-size=32 / tu-intra-depth=1 / tu-inter-depth=1 / me=1 / subme=2 / merange=57 / no-rect / no-amp / max-merge=2 / temporal-mvp / no-early-skip / rdpenalty=0 / no-tskip / no-tskip-fast / strong-intra-smoothing / no-lossless / no-cu-lossless / no-constrained-intra / fast-intra / no-open-gop / no-temporal-layers / interlace=0 / keyint=250 / min-keyint=23 / scenecut=0 / rc-lookahead=15 / lookahead-slices=8 / bframes=4 / bframe-bias=0 / b-adapt=2 / ref=3 / limit-refs=3 / no-limit-modes / weightp / no-weightb / aq-mode=1 / qg-size=32 / aq-strength=1.00 / cbqpoffs=0 / crqpoffs=0 / rd=2 / psy-rd=2.00 / rdoq-level=0 / psy-rdoq=0.00 / signhide / deblock / sao / no-sao-non-deblock / b-pyramid / cutree / no-intra-refresh / rc=2 / pass / bitrate=12000 / qcomp=0.60 / qpmin=0 / qpmax=51 / qpstep=4 / cplxblur=20.0 / qblur=0.5 / ipratio=1.40 / pbratio=1.30
  34. Default                                  : Yes
  35. Forced                                   : No
  36. Color range                              : Limited
  37. Color primaries                          : BT.2020
  38. Transfer characteristics                 : SMPTE ST 2084
  39. Matrix coefficients                      : BT.2020 non-constant
  40.  
  41. Audio #1
  42. ID                                       : 2
  43. Format                                   : AAC
  44. Format/Info                              : Advanced Audio Codec
  45. Format profile                           : LC
  46. Codec ID                                 : A_AAC
  47. Duration                                 : 2 h 7 min
  48. Bit rate                                 : 648 kb/s
  49. Channel(s)                               : 7 channels
  50. Channel(s)_Original                      : 8 channels
  51. Channel positions                        : Front: L C R, Side: L R, Back: L R, LFE
  52. Sampling rate                            : 48.0 kHz
  53. Frame rate                               : 46.875 FPS (1024 spf)
  54. Compression mode                         : Lossy
  55. Stream size                              : 593 MiB (5%)
  56. Title                                    : LC-AAC / 7.1 / 48 kHz
  57. Language                                 : English
  58. Default                                  : Yes
  59. Forced                                   : No
  60.  
  61. Audio #2
  62. ID                                       : 3
  63. Format                                   : AC-3
  64. Format/Info                              : Audio Coding 3
  65. Mode                                     : Dolby Digital
  66. Format settings, Endianness              : Big
  67. Codec ID                                 : A_AC3
  68. Duration                                 : 2 h 7 min
  69. Bit rate mode                            : Constant
  70. Bit rate                                 : 224 kb/s
  71. Channel(s)                               : 2 channels
  72. Channel positions                        : Front: L R
  73. Sampling rate                            : 48.0 kHz
  74. Frame rate                               : 31.250 FPS (1536 spf)
  75. Bit depth                                : 16 bits
  76. Compression mode                         : Lossy
  77. Stream size                              : 205 MiB (2%)
  78. Title                                    : Commentary by writer_director Damien Chazelle and composer Justin Hurwitz
  79. Language                                 : English
  80. Service kind                             : Complete Main
  81. Default                                  : No
  82. Forced                                   : No
  83.  
  84. Text #1
  85. ID                                       : 4
  86. Format                                   : PGS
  87. Muxing mode                              : zlib
  88. Codec ID                                 : S_HDMV/PGS
  89. Codec ID/Info                            : Picture based subtitle format used on BDs/HD-DVDs
  90. Duration                                 : 1 h 59 min
  91. Bit rate                                 : 15.4 kb/s
  92. Count of elements                        : 2408
  93. Stream size                              : 13.1 MiB (0%)
  94. Language                                 : English
  95. Default                                  : No
  96. Forced                                   : No
  97.  
  98. Text #2
  99. ID                                       : 5
  100. Format                                   : UTF-8
  101. Codec ID                                 : S_TEXT/UTF8
  102. Codec ID/Info                            : UTF-8 Plain Text
  103. Duration                                 : 1 h 59 min
  104. Bit rate                                 : 70 b/s
  105. Count of elements                        : 1086
  106. Stream size                              : 61.4 KiB (0%)
  107. Language                                 : Arabic
  108. Default                                  : No
  109. Forced                                   : No
  110.  
  111. Menu
  112. 00:00:00.000                             : en:Chapter 1
  113. 00:07:06.926                             : en:Chapter 2
  114. 00:17:30.883                             : en:Chapter 3
  115. 00:26:05.856                             : en:Chapter 4
  116. 00:31:14.039                             : en:Chapter 5
  117. 00:39:29.075                             : en:Chapter 6
  118. 00:46:17.566                             : en:Chapter 7
  119. 00:52:11.170                             : en:Chapter 8
  120. 00:58:50.360                             : en:Chapter 9
  121. 01:05:58.580                             : en:Chapter 10
  122. 01:13:01.293                             : en:Chapter 11
  123. 01:24:16.301                             : en:Chapter 12
  124. 01:31:50.880                             : en:Chapter 13
  125. 01:41:10.981                             : en:Chapter 14
  126. 01:46:07.611                             : en:Chapter 15
  127. 01:56:19.598                             : en:Chapter 16
RAW Paste Data
We use cookies for various purposes including analytics. By continuing to use Pastebin, you agree to our use of cookies as described in the Cookies Policy. OK, I Understand
 
Top