SHARE
TWEET

Mirrors.2008.Unrated.1080p.BluRay.DTS.x264-CtrlHD

a guest May 19th, 2019 13 Never
Not a member of Pastebin yet? Sign Up, it unlocks many cool features!
  1. General
  2. Complete name                            : Mirrors.2008.Unrated.1080p.BluRay.DTS.x264-CtrlHD.mkv
  3. Format                                   : Matroska
  4. Format version                           : Version 1
  5. File size                                : 14.8 GiB
  6. Duration                                 : 1 h 51 min
  7. Overall bit rate                         : 19.0 Mb/s
  8. Encoded date                             : UTC 2009-01-27 05:08:15
  9. Writing application                      : mkvmerge v2.1.0 ('Another Place To Fall') built on Aug 19 2007 13:40:07
  10. Writing library                          : libebml v0.7.7 + libmatroska v0.8.1
  11.  
  12. Video
  13. ID                                       : 1
  14. Format                                   : AVC
  15. Format/Info                              : Advanced Video Codec
  16. Format profile                           : High@L4.1
  17. Format settings                          : CABAC / 5 Ref Frames
  18. Format settings, CABAC                   : Yes
  19. Format settings, Reference frames        : 5 frames
  20. Format settings, GOP                     : N=1
  21. Codec ID                                 : V_MPEG4/ISO/AVC
  22. Duration                                 : 1 h 51 min
  23. Bit rate                                 : 17.5 Mb/s
  24. Width                                    : 1 920 pixels
  25. Height                                   : 800 pixels
  26. Display aspect ratio                     : 2.40:1
  27. Frame rate mode                          : Constant
  28. Frame rate                               : 23.976 FPS
  29. Color space                              : YUV
  30. Chroma subsampling                       : 4:2:0
  31. Bit depth                                : 8 bits
  32. Scan type                                : Progressive
  33. Bits/(Pixel*Frame)                       : 0.475
  34. Stream size                              : 13.3 GiB (90%)
  35. Title                                    : Vedio
  36. Writing library                          : x264 core 66 r1088M 71ac0a3
  37. Encoding settings                        : cabac=1 / ref=5 / deblock=1:-3:-3 / analyse=0x3:0x133 / me=umh / subme=9 / psy_rd=1.2:0.0 / mixed_ref=1 / me_range=32 / chroma_me=1 / trellis=2 / 8x8dct=1 / cqm=0 / deadzone=21,11 / chroma_qp_offset=-2 / threads=6 / nr=0 / decimate=1 / mbaff=0 / bframes=8 / b_pyramid=1 / b_adapt=2 / b_bias=0 / direct=3 / wpredb=1 / keyint=250 / keyint_min=25 / scenecut=40(pre) / rc=2pass / bitrate=17500 / ratetol=1.0 / qcomp=0.60 / qpmin=10 / qpmax=51 / qpstep=4 / cplxblur=20.0 / qblur=0.5 / ip_ratio=1.40 / pb_ratio=1.30 / aq=1:0.80
  38. Language                                 : English
  39. Default                                  : Yes
  40. Forced                                   : No
  41.  
  42. Audio
  43. ID                                       : 2
  44. Format                                   : DTS
  45. Format/Info                              : Digital Theater Systems
  46. Codec ID                                 : A_DTS
  47. Duration                                 : 1 h 51 min
  48. Bit rate mode                            : Constant
  49. Bit rate                                 : 1 509 kb/s
  50. Channel(s)                               : 6 channels
  51. Channel layout                           : C L R Ls Rs LFE
  52. Sampling rate                            : 48.0 kHz
  53. Frame rate                               : 93.750 FPS (512 SPF)
  54. Bit depth                                : 24 bits
  55. Compression mode                         : Lossy
  56. Stream size                              : 1.17 GiB (8%)
  57. Title                                    : Audio
  58. Language                                 : English
  59. Default                                  : Yes
  60. Forced                                   : No
RAW Paste Data
We use cookies for various purposes including analytics. By continuing to use Pastebin, you agree to our use of cookies as described in the Cookies Policy. OK, I Understand
Not a member of Pastebin yet?
Sign Up, it unlocks many cool features!
 
Top