Susandra

Activity Log - Handbrake

Feb 1st, 2016
77
Never
Not a member of Pastebin yet? Sign Up, it unlocks many cool features!
  1. [13:50:01] macgui: built in presets updated to build number: 2016012200
  2. [13:50:01] macgui: Handbrake Version: 0.10.3 x86_64 (2016012200)
  3. [13:50:01] hb_init: starting libhb thread
  4. [13:50:01] hb_init: starting libhb thread
  5. [13:50:03] macgui: hbInstances path to this instance: /Volumes/HandBrake-0.10.3-MacOSX.6_GUI_x86_64/HandBrake.app
  6. [13:50:03] macgui: hbInstance found instance pidnum: 4998 at path: /Volumes/HandBrake-0.10.3-MacOSX.6_GUI_x86_64/HandBrake.app
  7. [13:50:03] macgui: hbInstance MATCH FOUND, our pidnum is: 4998
  8. [13:50:03] macgui: Pid for this instance: 4998
  9. [13:50:03] macgui: HBQueueController : My Pidnum is 4998
  10. [13:50:43] macgui: trying to open video_ts folder (parent directory chosen)
  11. [13:50:43] macgui: scanning titles with a duration of 10 seconds or more
  12. [13:50:43] CPU: Intel(R) Core(TM) i5-3210M CPU @ 2.50GHz
  13. [13:50:43] - Intel microarchitecture Ivy Bridge
  14. [13:50:43] - logical processor count: 4
  15. [13:50:44] OpenCL device #1: Intel HD Graphics 4000
  16. [13:50:44] - OpenCL version: 1.2
  17. [13:50:44] - driver version: 1.2(Dec 17 2015 21:11:48)
  18. [13:50:44] - device type: GPU
  19. [13:50:44] - supported: no
  20. [13:50:44] hb_scan: path=/Users/Susandra/Documents/CHI and SIGCHI/CHI 2016/Panel on John Karat/Video of John for Panel.pptx, title_index=0
  21. libbluray/bdnav/index_parse.c:162: indx_parse(): error opening /Users/Susandra/Documents/CHI and SIGCHI/CHI 2016/Panel on John Karat/Video of John for Panel.pptx/BDMV/index.bdmv
  22. libbluray/bdnav/index_parse.c:162: indx_parse(): error opening /Users/Susandra/Documents/CHI and SIGCHI/CHI 2016/Panel on John Karat/Video of John for Panel.pptx/BDMV/BACKUP/index.bdmv
  23. libbluray/bluray.c:2182: nav_get_title_list(/Users/Susandra/Documents/CHI and SIGCHI/CHI 2016/Panel on John Karat/Video of John for Panel.pptx) failed
  24. [13:50:44] bd: not a bd - trying as a stream/file instead
  25. libdvdnav: Using dvdnav version 5.0.1
  26. libdvdread: Encrypted DVD support unavailable.
  27. libdvdread:DVDOpenFileUDF:UDFFindFile /VIDEO_TS/VIDEO_TS.IFO failed
  28. libdvdread:DVDOpenFileUDF:UDFFindFile /VIDEO_TS/VIDEO_TS.BUP failed
  29. libdvdread: Can't open file VIDEO_TS.IFO.
  30. libdvdnav: vm: failed to read VIDEO_TS.IFO
  31. [13:50:44] dvd: not a dvd - trying as a stream/file instead
  32. [13:50:45] hb_stream_open: open /Users/Susandra/Documents/CHI and SIGCHI/CHI 2016/Panel on John Karat/Video of John for Panel.pptx failed
  33. [13:50:45] scan: unrecognized file type
  34. [13:50:45] libhb: scan thread found 0 valid title(s)
  35. [13:50:45] macgui: ScanDone state received from fHandle
  36. [13:51:13] macgui: trying to open video_ts folder (parent directory chosen)
  37. [13:51:13] macgui: scanning titles with a duration of 10 seconds or more
  38. [13:51:13] CPU: Intel(R) Core(TM) i5-3210M CPU @ 2.50GHz
  39. [13:51:13] - Intel microarchitecture Ivy Bridge
  40. [13:51:13] - logical processor count: 4
  41. [13:51:13] OpenCL device #1: Intel HD Graphics 4000
  42. [13:51:13] - OpenCL version: 1.2
  43. [13:51:13] - driver version: 1.2(Dec 17 2015 21:11:48)
  44. [13:51:13] - device type: GPU
  45. [13:51:13] - supported: no
  46. [13:51:13] hb_scan: path=/Users/Susandra/Documents/CHI and SIGCHI/CHI 2016/Panel on John Karat/Video of John for Panel.pptx, title_index=0
  47. libbluray/bdnav/index_parse.c:162: indx_parse(): error opening /Users/Susandra/Documents/CHI and SIGCHI/CHI 2016/Panel on John Karat/Video of John for Panel.pptx/BDMV/index.bdmv
  48. libbluray/bdnav/index_parse.c:162: indx_parse(): error opening /Users/Susandra/Documents/CHI and SIGCHI/CHI 2016/Panel on John Karat/Video of John for Panel.pptx/BDMV/BACKUP/index.bdmv
  49. libbluray/bluray.c:2182: nav_get_title_list(/Users/Susandra/Documents/CHI and SIGCHI/CHI 2016/Panel on John Karat/Video of John for Panel.pptx) failed
  50. [13:51:13] bd: not a bd - trying as a stream/file instead
  51. libdvdnav: Using dvdnav version 5.0.1
  52. libdvdread: Encrypted DVD support unavailable.
  53. libdvdread:DVDOpenFileUDF:UDFFindFile /VIDEO_TS/VIDEO_TS.IFO failed
  54. libdvdread:DVDOpenFileUDF:UDFFindFile /VIDEO_TS/VIDEO_TS.BUP failed
  55. libdvdread: Can't open file VIDEO_TS.IFO.
  56. libdvdnav: vm: failed to read VIDEO_TS.IFO
  57. [13:51:13] dvd: not a dvd - trying as a stream/file instead
  58. [13:51:13] hb_stream_open: open /Users/Susandra/Documents/CHI and SIGCHI/CHI 2016/Panel on John Karat/Video of John for Panel.pptx failed
  59. [13:51:13] scan: unrecognized file type
  60. [13:51:13] libhb: scan thread found 0 valid title(s)
  61. [13:51:13] macgui: ScanDone state received from fHandle
  62. [14:05:01] macgui: trying to open video_ts folder (parent directory chosen)
  63. [14:05:01] macgui: scanning titles with a duration of 10 seconds or more
  64. [14:05:01] CPU: Intel(R) Core(TM) i5-3210M CPU @ 2.50GHz
  65. [14:05:01] - Intel microarchitecture Ivy Bridge
  66. [14:05:01] - logical processor count: 4
  67. [14:05:01] OpenCL device #1: Intel HD Graphics 4000
  68. [14:05:01] - OpenCL version: 1.2
  69. [14:05:01] - driver version: 1.2(Dec 17 2015 21:11:48)
  70. [14:05:01] - device type: GPU
  71. [14:05:01] - supported: no
  72. [14:05:01] hb_scan: path=/Users/Susandra/Documents/CHI and SIGCHI/CHI 2016/Panel on John Karat/Video of John for Panel.mov, title_index=0
  73. libbluray/bdnav/index_parse.c:162: indx_parse(): error opening /Users/Susandra/Documents/CHI and SIGCHI/CHI 2016/Panel on John Karat/Video of John for Panel.mov/BDMV/index.bdmv
  74. libbluray/bdnav/index_parse.c:162: indx_parse(): error opening /Users/Susandra/Documents/CHI and SIGCHI/CHI 2016/Panel on John Karat/Video of John for Panel.mov/BDMV/BACKUP/index.bdmv
  75. libbluray/bluray.c:2182: nav_get_title_list(/Users/Susandra/Documents/CHI and SIGCHI/CHI 2016/Panel on John Karat/Video of John for Panel.mov) failed
  76. [14:05:01] bd: not a bd - trying as a stream/file instead
  77. libdvdnav: Using dvdnav version 5.0.1
  78. libdvdread: Encrypted DVD support unavailable.
  79. libdvdread:DVDOpenFileUDF:UDFFindFile /VIDEO_TS/VIDEO_TS.IFO failed
  80. libdvdread:DVDOpenFileUDF:UDFFindFile /VIDEO_TS/VIDEO_TS.BUP failed
  81. libdvdread: Can't open file VIDEO_TS.IFO.
  82. libdvdnav: vm: failed to read VIDEO_TS.IFO
  83. [14:05:01] dvd: not a dvd - trying as a stream/file instead
  84. Input #0, mov,mp4,m4a,3gp,3g2,mj2, from '/Users/Susandra/Documents/CHI and SIGCHI/CHI 2016/Panel on John Karat/Video of John for Panel.mov':
  85. Metadata:
  86. major_brand : qt
  87. minor_version : 537199360
  88. compatible_brands: qt
  89. creation_time : 2016-01-31 19:58:00
  90. comment : Microsoft PowerPoint Movie
  91. comment-eng : Microsoft PowerPoint Movie
  92. Duration: 00:00:31.11, start: 0.000000, bitrate: 1253 kb/s
  93. Stream #0.0(eng): Video: qtrle, bgra, 640x480, 1253 kb/s, 0.32 fps, 600 tbn (default)
  94. Metadata:
  95. creation_time : 2016-01-31 19:58:00
  96. Stream #0.1(eng): Video: [0][0][0][0] / 0x0000, 600 tbn (default)
  97. Metadata:
  98. creation_time : 2016-01-31 19:58:00
  99. Stream #0.2(eng): Video: [0][0][0][0] / 0x0000, 600 tbn (default)
  100. Metadata:
  101. creation_time : 2016-01-31 19:58:00
  102. [14:05:03] scan: decoding previews for title 1
  103. [14:05:03] Warning: Could not read data for preview 1, skipped
  104. [14:05:03] scan: decoding previews for title 1
  105. [14:05:03] Warning: Could not read data for preview 1, skipped
  106. [14:05:03] libhb: scan thread found 0 valid title(s)
  107. [14:05:04] macgui: ScanDone state received from fHandle
  108. [14:05:16] macgui: trying to open video_ts folder (parent directory chosen)
  109. [14:05:16] macgui: scanning titles with a duration of 10 seconds or more
  110. [14:05:16] CPU: Intel(R) Core(TM) i5-3210M CPU @ 2.50GHz
  111. [14:05:16] - Intel microarchitecture Ivy Bridge
  112. [14:05:16] - logical processor count: 4
  113. [14:05:16] OpenCL device #1: Intel HD Graphics 4000
  114. [14:05:16] - OpenCL version: 1.2
  115. [14:05:16] - driver version: 1.2(Dec 17 2015 21:11:48)
  116. [14:05:16] - device type: GPU
  117. [14:05:16] - supported: no
  118. [14:05:16] hb_scan: path=/Users/Susandra/Documents/CHI and SIGCHI/CHI 2016/Panel on John Karat/Video of John for Panel.mov, title_index=0
  119. libbluray/bdnav/index_parse.c:162: indx_parse(): error opening /Users/Susandra/Documents/CHI and SIGCHI/CHI 2016/Panel on John Karat/Video of John for Panel.mov/BDMV/index.bdmv
  120. libbluray/bdnav/index_parse.c:162: indx_parse(): error opening /Users/Susandra/Documents/CHI and SIGCHI/CHI 2016/Panel on John Karat/Video of John for Panel.mov/BDMV/BACKUP/index.bdmv
  121. libbluray/bluray.c:2182: nav_get_title_list(/Users/Susandra/Documents/CHI and SIGCHI/CHI 2016/Panel on John Karat/Video of John for Panel.mov) failed
  122. [14:05:16] bd: not a bd - trying as a stream/file instead
  123. libdvdnav: Using dvdnav version 5.0.1
  124. libdvdread: Encrypted DVD support unavailable.
  125. libdvdread:DVDOpenFileUDF:UDFFindFile /VIDEO_TS/VIDEO_TS.IFO failed
  126. libdvdread:DVDOpenFileUDF:UDFFindFile /VIDEO_TS/VIDEO_TS.BUP failed
  127. libdvdread: Can't open file VIDEO_TS.IFO.
  128. libdvdnav: vm: failed to read VIDEO_TS.IFO
  129. [14:05:16] dvd: not a dvd - trying as a stream/file instead
  130. Input #0, mov,mp4,m4a,3gp,3g2,mj2, from '/Users/Susandra/Documents/CHI and SIGCHI/CHI 2016/Panel on John Karat/Video of John for Panel.mov':
  131. Metadata:
  132. major_brand : qt
  133. minor_version : 537199360
  134. compatible_brands: qt
  135. creation_time : 2016-01-31 19:58:00
  136. comment : Microsoft PowerPoint Movie
  137. comment-eng : Microsoft PowerPoint Movie
  138. Duration: 00:00:31.11, start: 0.000000, bitrate: 1253 kb/s
  139. Stream #0.0(eng): Video: qtrle, bgra, 640x480, 1253 kb/s, 0.32 fps, 600 tbn (default)
  140. Metadata:
  141. creation_time : 2016-01-31 19:58:00
  142. Stream #0.1(eng): Video: [0][0][0][0] / 0x0000, 600 tbn (default)
  143. Metadata:
  144. creation_time : 2016-01-31 19:58:00
  145. Stream #0.2(eng): Video: [0][0][0][0] / 0x0000, 600 tbn (default)
  146. Metadata:
  147. creation_time : 2016-01-31 19:58:00
  148. [14:05:16] scan: decoding previews for title 1
  149. [14:05:16] Warning: Could not read data for preview 1, skipped
  150. [14:05:16] scan: decoding previews for title 1
  151. [14:05:16] Warning: Could not read data for preview 1, skipped
  152. [14:05:16] libhb: scan thread found 0 valid title(s)
  153. [14:05:17] macgui: ScanDone state received from fHandle
  154. [14:22:51] macgui: trying to open video_ts folder (parent directory chosen)
  155. [14:22:51] macgui: scanning titles with a duration of 10 seconds or more
  156. [14:22:51] CPU: Intel(R) Core(TM) i5-3210M CPU @ 2.50GHz
  157. [14:22:51] - Intel microarchitecture Ivy Bridge
  158. [14:22:51] - logical processor count: 4
  159. [14:22:51] OpenCL device #1: Intel HD Graphics 4000
  160. [14:22:51] - OpenCL version: 1.2
  161. [14:22:51] - driver version: 1.2(Dec 17 2015 21:11:48)
  162. [14:22:51] - device type: GPU
  163. [14:22:51] - supported: no
  164. [14:22:51] hb_scan: path=/Users/Susandra/Documents/CHI and SIGCHI/CHI 2016/Panel on John Karat/Video of John for Panel.mov, title_index=0
  165. libbluray/bdnav/index_parse.c:162: indx_parse(): error opening /Users/Susandra/Documents/CHI and SIGCHI/CHI 2016/Panel on John Karat/Video of John for Panel.mov/BDMV/index.bdmv
  166. libbluray/bdnav/index_parse.c:162: indx_parse(): error opening /Users/Susandra/Documents/CHI and SIGCHI/CHI 2016/Panel on John Karat/Video of John for Panel.mov/BDMV/BACKUP/index.bdmv
  167. libbluray/bluray.c:2182: nav_get_title_list(/Users/Susandra/Documents/CHI and SIGCHI/CHI 2016/Panel on John Karat/Video of John for Panel.mov) failed
  168. [14:22:51] bd: not a bd - trying as a stream/file instead
  169. libdvdnav: Using dvdnav version 5.0.1
  170. libdvdread: Encrypted DVD support unavailable.
  171. libdvdread:DVDOpenFileUDF:UDFFindFile /VIDEO_TS/VIDEO_TS.IFO failed
  172. libdvdread:DVDOpenFileUDF:UDFFindFile /VIDEO_TS/VIDEO_TS.BUP failed
  173. libdvdread: Can't open file VIDEO_TS.IFO.
  174. libdvdnav: vm: failed to read VIDEO_TS.IFO
  175. [14:22:51] dvd: not a dvd - trying as a stream/file instead
  176. Input #0, mov,mp4,m4a,3gp,3g2,mj2, from '/Users/Susandra/Documents/CHI and SIGCHI/CHI 2016/Panel on John Karat/Video of John for Panel.mov':
  177. Metadata:
  178. major_brand : qt
  179. minor_version : 537199360
  180. compatible_brands: qt
  181. creation_time : 2016-01-31 19:58:00
  182. comment : Microsoft PowerPoint Movie
  183. comment-eng : Microsoft PowerPoint Movie
  184. Duration: 00:00:31.11, start: 0.000000, bitrate: 1253 kb/s
  185. Stream #0.0(eng): Video: qtrle, bgra, 640x480, 1253 kb/s, 0.32 fps, 600 tbn (default)
  186. Metadata:
  187. creation_time : 2016-01-31 19:58:00
  188. Stream #0.1(eng): Video: [0][0][0][0] / 0x0000, 600 tbn (default)
  189. Metadata:
  190. creation_time : 2016-01-31 19:58:00
  191. Stream #0.2(eng): Video: [0][0][0][0] / 0x0000, 600 tbn (default)
  192. Metadata:
  193. creation_time : 2016-01-31 19:58:00
  194. [14:22:51] scan: decoding previews for title 1
  195. [14:22:51] Warning: Could not read data for preview 1, skipped
  196. [14:22:51] scan: decoding previews for title 1
  197. [14:22:51] Warning: Could not read data for preview 1, skipped
  198. [14:22:51] libhb: scan thread found 0 valid title(s)
  199. [14:22:51] macgui: ScanDone state received from fHandle
  200. Got xpc error message: Connection interrupted
  201. [17:42:02] macgui: trying to open video_ts folder (parent directory chosen)
  202. [17:42:02] macgui: scanning titles with a duration of 10 seconds or more
  203. [17:42:02] CPU: Intel(R) Core(TM) i5-3210M CPU @ 2.50GHz
  204. [17:42:02] - Intel microarchitecture Ivy Bridge
  205. [17:42:02] - logical processor count: 4
  206. [17:42:02] OpenCL device #1: Intel HD Graphics 4000
  207. [17:42:02] - OpenCL version: 1.2
  208. [17:42:02] - driver version: 1.2(Dec 17 2015 21:11:48)
  209. [17:42:02] - device type: GPU
  210. [17:42:02] - supported: no
  211. [17:42:02] hb_scan: path=/Users/Susandra/Documents/CHI and SIGCHI/CHI 2016/Panel on John Karat/Video of John for Panel.mov, title_index=0
  212. libbluray/bdnav/index_parse.c:162: indx_parse(): error opening /Users/Susandra/Documents/CHI and SIGCHI/CHI 2016/Panel on John Karat/Video of John for Panel.mov/BDMV/index.bdmv
  213. libbluray/bdnav/index_parse.c:162: indx_parse(): error opening /Users/Susandra/Documents/CHI and SIGCHI/CHI 2016/Panel on John Karat/Video of John for Panel.mov/BDMV/BACKUP/index.bdmv
  214. libbluray/bluray.c:2182: nav_get_title_list(/Users/Susandra/Documents/CHI and SIGCHI/CHI 2016/Panel on John Karat/Video of John for Panel.mov) failed
  215. [17:42:03] bd: not a bd - trying as a stream/file instead
  216. libdvdnav: Using dvdnav version 5.0.1
  217. libdvdread: Encrypted DVD support unavailable.
  218. libdvdread:DVDOpenFileUDF:UDFFindFile /VIDEO_TS/VIDEO_TS.IFO failed
  219. libdvdread:DVDOpenFileUDF:UDFFindFile /VIDEO_TS/VIDEO_TS.BUP failed
  220. libdvdread: Can't open file VIDEO_TS.IFO.
  221. libdvdnav: vm: failed to read VIDEO_TS.IFO
  222. [17:42:03] dvd: not a dvd - trying as a stream/file instead
  223. Input #0, mov,mp4,m4a,3gp,3g2,mj2, from '/Users/Susandra/Documents/CHI and SIGCHI/CHI 2016/Panel on John Karat/Video of John for Panel.mov':
  224. Metadata:
  225. major_brand : qt
  226. minor_version : 537199360
  227. compatible_brands: qt
  228. creation_time : 2016-01-31 19:58:00
  229. comment : Microsoft PowerPoint Movie
  230. comment-eng : Microsoft PowerPoint Movie
  231. Duration: 00:00:31.11, start: 0.000000, bitrate: 1253 kb/s
  232. Stream #0.0(eng): Video: qtrle, bgra, 640x480, 1253 kb/s, 0.32 fps, 600 tbn (default)
  233. Metadata:
  234. creation_time : 2016-01-31 19:58:00
  235. Stream #0.1(eng): Video: [0][0][0][0] / 0x0000, 600 tbn (default)
  236. Metadata:
  237. creation_time : 2016-01-31 19:58:00
  238. Stream #0.2(eng): Video: [0][0][0][0] / 0x0000, 600 tbn (default)
  239. Metadata:
  240. creation_time : 2016-01-31 19:58:00
  241. [17:42:04] scan: decoding previews for title 1
  242. [17:42:04] Warning: Could not read data for preview 1, skipped
  243. [17:42:04] scan: decoding previews for title 1
  244. [17:42:04] Warning: Could not read data for preview 1, skipped
  245. [17:42:04] libhb: scan thread found 0 valid title(s)
  246. [17:42:05] macgui: ScanDone state received from fHandle
  247. [17:42:36] macgui: trying to open video_ts folder (parent directory chosen)
  248. [17:42:36] macgui: scanning titles with a duration of 10 seconds or more
  249. [17:42:36] CPU: Intel(R) Core(TM) i5-3210M CPU @ 2.50GHz
  250. [17:42:36] - Intel microarchitecture Ivy Bridge
  251. [17:42:36] - logical processor count: 4
  252. [17:42:36] OpenCL device #1: Intel HD Graphics 4000
  253. [17:42:36] - OpenCL version: 1.2
  254. [17:42:36] - driver version: 1.2(Dec 17 2015 21:11:48)
  255. [17:42:36] - device type: GPU
  256. [17:42:36] - supported: no
  257. [17:42:36] hb_scan: path=/Users/Susandra/Documents/CHI and SIGCHI/CHI 2016/Panel on John Karat/Video of John for Panel.pptx, title_index=0
  258. libbluray/bdnav/index_parse.c:162: indx_parse(): error opening /Users/Susandra/Documents/CHI and SIGCHI/CHI 2016/Panel on John Karat/Video of John for Panel.pptx/BDMV/index.bdmv
  259. libbluray/bdnav/index_parse.c:162: indx_parse(): error opening /Users/Susandra/Documents/CHI and SIGCHI/CHI 2016/Panel on John Karat/Video of John for Panel.pptx/BDMV/BACKUP/index.bdmv
  260. libbluray/bluray.c:2182: nav_get_title_list(/Users/Susandra/Documents/CHI and SIGCHI/CHI 2016/Panel on John Karat/Video of John for Panel.pptx) failed
  261. [17:42:36] bd: not a bd - trying as a stream/file instead
  262. libdvdnav: Using dvdnav version 5.0.1
  263. libdvdread: Encrypted DVD support unavailable.
  264. libdvdread:DVDOpenFileUDF:UDFFindFile /VIDEO_TS/VIDEO_TS.IFO failed
  265. libdvdread:DVDOpenFileUDF:UDFFindFile /VIDEO_TS/VIDEO_TS.BUP failed
  266. libdvdread: Can't open file VIDEO_TS.IFO.
  267. libdvdnav: vm: failed to read VIDEO_TS.IFO
  268. [17:42:36] dvd: not a dvd - trying as a stream/file instead
  269. [17:42:37] hb_stream_open: open /Users/Susandra/Documents/CHI and SIGCHI/CHI 2016/Panel on John Karat/Video of John for Panel.pptx failed
  270. [17:42:37] scan: unrecognized file type
  271. [17:42:37] libhb: scan thread found 0 valid title(s)
  272. [17:42:37] macgui: ScanDone state received from fHandle
  273. [17:43:20] macgui: trying to open video_ts folder (parent directory chosen)
  274. [17:43:20] macgui: scanning titles with a duration of 10 seconds or more
  275. [17:43:20] CPU: Intel(R) Core(TM) i5-3210M CPU @ 2.50GHz
  276. [17:43:20] - Intel microarchitecture Ivy Bridge
  277. [17:43:20] - logical processor count: 4
  278. [17:43:20] OpenCL device #1: Intel HD Graphics 4000
  279. [17:43:20] - OpenCL version: 1.2
  280. [17:43:20] - driver version: 1.2(Dec 17 2015 21:11:48)
  281. [17:43:20] - device type: GPU
  282. [17:43:20] - supported: no
  283. [17:43:20] hb_scan: path=/Users/Susandra/Documents/CHI and SIGCHI/CHI 2016/Panel on John Karat/Video of John for Panel.mov, title_index=0
  284. libbluray/bdnav/index_parse.c:162: indx_parse(): error opening /Users/Susandra/Documents/CHI and SIGCHI/CHI 2016/Panel on John Karat/Video of John for Panel.mov/BDMV/index.bdmv
  285. libbluray/bdnav/index_parse.c:162: indx_parse(): error opening /Users/Susandra/Documents/CHI and SIGCHI/CHI 2016/Panel on John Karat/Video of John for Panel.mov/BDMV/BACKUP/index.bdmv
  286. libbluray/bluray.c:2182: nav_get_title_list(/Users/Susandra/Documents/CHI and SIGCHI/CHI 2016/Panel on John Karat/Video of John for Panel.mov) failed
  287. [17:43:20] bd: not a bd - trying as a stream/file instead
  288. libdvdnav: Using dvdnav version 5.0.1
  289. libdvdread: Encrypted DVD support unavailable.
  290. libdvdread:DVDOpenFileUDF:UDFFindFile /VIDEO_TS/VIDEO_TS.IFO failed
  291. libdvdread:DVDOpenFileUDF:UDFFindFile /VIDEO_TS/VIDEO_TS.BUP failed
  292. libdvdread: Can't open file VIDEO_TS.IFO.
  293. libdvdnav: vm: failed to read VIDEO_TS.IFO
  294. [17:43:20] dvd: not a dvd - trying as a stream/file instead
  295. Input #0, mov,mp4,m4a,3gp,3g2,mj2, from '/Users/Susandra/Documents/CHI and SIGCHI/CHI 2016/Panel on John Karat/Video of John for Panel.mov':
  296. Metadata:
  297. major_brand : qt
  298. minor_version : 537199360
  299. compatible_brands: qt
  300. creation_time : 2016-01-31 19:58:00
  301. comment : Microsoft PowerPoint Movie
  302. comment-eng : Microsoft PowerPoint Movie
  303. Duration: 00:00:31.11, start: 0.000000, bitrate: 1253 kb/s
  304. Stream #0.0(eng): Video: qtrle, bgra, 640x480, 1253 kb/s, 0.32 fps, 600 tbn (default)
  305. Metadata:
  306. creation_time : 2016-01-31 19:58:00
  307. Stream #0.1(eng): Video: [0][0][0][0] / 0x0000, 600 tbn (default)
  308. Metadata:
  309. creation_time : 2016-01-31 19:58:00
  310. Stream #0.2(eng): Video: [0][0][0][0] / 0x0000, 600 tbn (default)
  311. Metadata:
  312. creation_time : 2016-01-31 19:58:00
  313. [17:43:20] scan: decoding previews for title 1
  314. [17:43:20] Warning: Could not read data for preview 1, skipped
  315. [17:43:20] scan: decoding previews for title 1
  316. [17:43:20] Warning: Could not read data for preview 1, skipped
  317. [17:43:20] libhb: scan thread found 0 valid title(s)
  318. [17:43:20] macgui: ScanDone state received from fHandle
  319. [17:49:28] macgui: trying to open video_ts folder (parent directory chosen)
  320. [17:49:28] macgui: scanning titles with a duration of 10 seconds or more
  321. [17:49:28] CPU: Intel(R) Core(TM) i5-3210M CPU @ 2.50GHz
  322. [17:49:28] - Intel microarchitecture Ivy Bridge
  323. [17:49:28] - logical processor count: 4
  324. [17:49:28] OpenCL device #1: Intel HD Graphics 4000
  325. [17:49:28] - OpenCL version: 1.2
  326. [17:49:28] - driver version: 1.2(Dec 17 2015 21:11:48)
  327. [17:49:28] - device type: GPU
  328. [17:49:28] - supported: no
  329. [17:49:28] hb_scan: path=/Users/Susandra/Documents/CHI and SIGCHI/CHI 2016/Panel on John Karat/Video of John for Panel.mov, title_index=0
  330. libbluray/bdnav/index_parse.c:162: indx_parse(): error opening /Users/Susandra/Documents/CHI and SIGCHI/CHI 2016/Panel on John Karat/Video of John for Panel.mov/BDMV/index.bdmv
  331. libbluray/bdnav/index_parse.c:162: indx_parse(): error opening /Users/Susandra/Documents/CHI and SIGCHI/CHI 2016/Panel on John Karat/Video of John for Panel.mov/BDMV/BACKUP/index.bdmv
  332. libbluray/bluray.c:2182: nav_get_title_list(/Users/Susandra/Documents/CHI and SIGCHI/CHI 2016/Panel on John Karat/Video of John for Panel.mov) failed
  333. [17:49:28] bd: not a bd - trying as a stream/file instead
  334. libdvdnav: Using dvdnav version 5.0.1
  335. libdvdread: Encrypted DVD support unavailable.
  336. libdvdread:DVDOpenFileUDF:UDFFindFile /VIDEO_TS/VIDEO_TS.IFO failed
  337. libdvdread:DVDOpenFileUDF:UDFFindFile /VIDEO_TS/VIDEO_TS.BUP failed
  338. libdvdread: Can't open file VIDEO_TS.IFO.
  339. libdvdnav: vm: failed to read VIDEO_TS.IFO
  340. [17:49:28] dvd: not a dvd - trying as a stream/file instead
  341. Input #0, mov,mp4,m4a,3gp,3g2,mj2, from '/Users/Susandra/Documents/CHI and SIGCHI/CHI 2016/Panel on John Karat/Video of John for Panel.mov':
  342. Metadata:
  343. major_brand : qt
  344. minor_version : 537199360
  345. compatible_brands: qt
  346. creation_time : 2016-01-31 19:58:00
  347. comment : Microsoft PowerPoint Movie
  348. comment-eng : Microsoft PowerPoint Movie
  349. Duration: 00:00:31.11, start: 0.000000, bitrate: 1253 kb/s
  350. Stream #0.0(eng): Video: qtrle, bgra, 640x480, 1253 kb/s, 0.32 fps, 600 tbn (default)
  351. Metadata:
  352. creation_time : 2016-01-31 19:58:00
  353. Stream #0.1(eng): Video: [0][0][0][0] / 0x0000, 600 tbn (default)
  354. Metadata:
  355. creation_time : 2016-01-31 19:58:00
  356. Stream #0.2(eng): Video: [0][0][0][0] / 0x0000, 600 tbn (default)
  357. Metadata:
  358. creation_time : 2016-01-31 19:58:00
  359. [17:49:28] scan: decoding previews for title 1
  360. [17:49:28] Warning: Could not read data for preview 1, skipped
  361. [17:49:28] scan: decoding previews for title 1
  362. [17:49:28] Warning: Could not read data for preview 1, skipped
  363. [17:49:28] libhb: scan thread found 0 valid title(s)
  364. [17:49:28] macgui: ScanDone state received from fHandle
  365. [17:52:30] macgui: trying to open video_ts folder (parent directory chosen)
  366. [17:52:30] macgui: scanning titles with a duration of 10 seconds or more
  367. [17:52:30] CPU: Intel(R) Core(TM) i5-3210M CPU @ 2.50GHz
  368. [17:52:30] - Intel microarchitecture Ivy Bridge
  369. [17:52:30] - logical processor count: 4
  370. [17:52:30] OpenCL device #1: Intel HD Graphics 4000
  371. [17:52:30] - OpenCL version: 1.2
  372. [17:52:30] - driver version: 1.2(Dec 17 2015 21:11:48)
  373. [17:52:30] - device type: GPU
  374. [17:52:30] - supported: no
  375. [17:52:30] hb_scan: path=/Users/Susandra/Desktop/Video of John for Panel (Converted).mov, title_index=0
  376. libbluray/bdnav/index_parse.c:162: indx_parse(): error opening /Users/Susandra/Desktop/Video of John for Panel (Converted).mov/BDMV/index.bdmv
  377. libbluray/bdnav/index_parse.c:162: indx_parse(): error opening /Users/Susandra/Desktop/Video of John for Panel (Converted).mov/BDMV/BACKUP/index.bdmv
  378. libbluray/bluray.c:2182: nav_get_title_list(/Users/Susandra/Desktop/Video of John for Panel (Converted).mov) failed
  379. [17:52:30] bd: not a bd - trying as a stream/file instead
  380. libdvdnav: Using dvdnav version 5.0.1
  381. libdvdread: Encrypted DVD support unavailable.
  382. libdvdread:DVDOpenFileUDF:UDFFindFile /VIDEO_TS/VIDEO_TS.IFO failed
  383. libdvdread:DVDOpenFileUDF:UDFFindFile /VIDEO_TS/VIDEO_TS.BUP failed
  384. libdvdread: Can't open file VIDEO_TS.IFO.
  385. libdvdnav: vm: failed to read VIDEO_TS.IFO
  386. [17:52:30] dvd: not a dvd - trying as a stream/file instead
  387. Input #0, mov,mp4,m4a,3gp,3g2,mj2, from '/Users/Susandra/Desktop/Video of John for Panel (Converted).mov':
  388. Metadata:
  389. major_brand : qt
  390. minor_version : 0
  391. compatible_brands: qt
  392. creation_time : 2016-02-01 23:51:46
  393. encoder : Mac OS X v? (AVF 1046.9.2, CM 1731.15.33, x86_64)
  394. encoder-eng : Mac OS X v? (AVF 1046.9.2, CM 1731.15.33, x86_64)
  395. comment : Microsoft PowerPoint Movie
  396. comment-eng : Microsoft PowerPoint Movie
  397. Duration: 00:00:31.11, start: 0.000000, bitrate: 632 kb/s
  398. Stream #0.0(eng): Video: prores, yuva444p10le, 640x480, 631 kb/s, 0.32 fps, 600 tbn (default)
  399. Metadata:
  400. creation_time : 2016-02-01 23:51:46
  401. [17:52:31] scan: decoding previews for title 1
  402. [17:52:31] Warning: Could not read data for preview 1, skipped
  403. [17:52:31] scan: decoding previews for title 1
  404. [17:52:31] Warning: Could not read data for preview 1, skipped
  405. [17:52:32] libhb: scan thread found 0 valid title(s)
  406. [17:52:32] macgui: ScanDone state received from fHandle
  407. [19:24:47] macgui: trying to open video_ts folder (parent directory chosen)
  408. [19:24:47] macgui: scanning titles with a duration of 10 seconds or more
  409. [19:24:47] CPU: Intel(R) Core(TM) i5-3210M CPU @ 2.50GHz
  410. [19:24:47] - Intel microarchitecture Ivy Bridge
  411. [19:24:47] - logical processor count: 4
  412. [19:24:48] OpenCL device #1: Intel HD Graphics 4000
  413. [19:24:48] - OpenCL version: 1.2
  414. [19:24:48] - driver version: 1.2(Dec 17 2015 21:11:48)
  415. [19:24:48] - device type: GPU
  416. [19:24:48] - supported: no
  417. [19:24:48] hb_scan: path=/Users/Susandra/Documents/CHI and SIGCHI/CHI 2016/Panel on John Karat/Karat.mov, title_index=0
  418. libbluray/bdnav/index_parse.c:162: indx_parse(): error opening /Users/Susandra/Documents/CHI and SIGCHI/CHI 2016/Panel on John Karat/Karat.mov/BDMV/index.bdmv
  419. libbluray/bdnav/index_parse.c:162: indx_parse(): error opening /Users/Susandra/Documents/CHI and SIGCHI/CHI 2016/Panel on John Karat/Karat.mov/BDMV/BACKUP/index.bdmv
  420. libbluray/bluray.c:2182: nav_get_title_list(/Users/Susandra/Documents/CHI and SIGCHI/CHI 2016/Panel on John Karat/Karat.mov) failed
  421. [19:24:48] bd: not a bd - trying as a stream/file instead
  422. libdvdnav: Using dvdnav version 5.0.1
  423. libdvdread: Encrypted DVD support unavailable.
  424. libdvdread:DVDOpenFileUDF:UDFFindFile /VIDEO_TS/VIDEO_TS.IFO failed
  425. libdvdread:DVDOpenFileUDF:UDFFindFile /VIDEO_TS/VIDEO_TS.BUP failed
  426. libdvdread: Can't open file VIDEO_TS.IFO.
  427. libdvdnav: vm: failed to read VIDEO_TS.IFO
  428. [19:24:48] dvd: not a dvd - trying as a stream/file instead
  429. Input #0, mov,mp4,m4a,3gp,3g2,mj2, from '/Users/Susandra/Documents/CHI and SIGCHI/CHI 2016/Panel on John Karat/Karat.mov':
  430. Metadata:
  431. major_brand : qt
  432. minor_version : 537199360
  433. compatible_brands: qt
  434. creation_time : 2016-02-02 01:24:31
  435. comment : Microsoft PowerPoint Movie
  436. comment-eng : Microsoft PowerPoint Movie
  437. Duration: 00:00:31.11, start: 0.000000, bitrate: 1257 kb/s
  438. Stream #0.0(eng): Video: qtrle, bgra, 640x480, 1257 kb/s, 0.32 fps, 600 tbn (default)
  439. Metadata:
  440. creation_time : 2016-02-02 01:24:31
  441. Stream #0.1(eng): Video: [0][0][0][0] / 0x0000, 600 tbn (default)
  442. Metadata:
  443. creation_time : 2016-02-02 01:24:31
  444. Stream #0.2(eng): Video: [0][0][0][0] / 0x0000, 600 tbn (default)
  445. Metadata:
  446. creation_time : 2016-02-02 01:24:31
  447. [19:24:49] scan: decoding previews for title 1
  448. [19:24:49] Warning: Could not read data for preview 1, skipped
  449. [19:24:49] scan: decoding previews for title 1
  450. [19:24:49] Warning: Could not read data for preview 1, skipped
  451. [19:24:49] libhb: scan thread found 0 valid title(s)
  452. [19:24:49] macgui: ScanDone state received from fHandle
RAW Paste Data