SHARE
TWEET

ARiN

iAsia May 19th, 2019 54 Never
Not a member of Pastebin yet? Sign Up, it unlocks many cool features!
  1. General
  2. Unique ID                                : 27494360640709468750965489425525547625 (0x14AF38A39377E9AE19F3375CAB50A269)
  3. Complete name                            : Pinocchio S01E01 1080p NF WEB-DL DD+2.0 x264-ARiN.mkv
  4. Format                                   : Matroska
  5. Format version                           : Version 4 / Version 2
  6. File size                                : 2.37 GiB
  7. Duration                                 : 59mn 16s
  8. Overall bit rate mode                    : Variable
  9. Overall bit rate                         : 5 736 Kbps
  10. Encoded date                             : UTC 2019-02-09 17:19:53
  11. Writing application                      : mkvmerge v25.0.0 ('Prog Noir') 32-bit
  12. Writing library                          : libebml v1.3.6 + libmatroska v1.4.9
  13.  
  14. Video
  15. ID                                       : 1
  16. Format                                   : AVC
  17. Format/Info                              : Advanced Video Codec
  18. Format profile                           : Main@L4
  19. Format settings, CABAC                   : Yes
  20. Format settings, ReFrames                : 3 frames
  21. Codec ID                                 : V_MPEG4/ISO/AVC
  22. Duration                                 : 59mn 15s
  23. Bit rate mode                            : Variable
  24. Bit rate                                 : 5 620 Kbps
  25. Maximum bit rate                         : 8 430 Kbps
  26. Width                                    : 1 920 pixels
  27. Height                                   : 1 080 pixels
  28. Display aspect ratio                     : 16:9
  29. Frame rate mode                          : Constant
  30. Frame rate                               : 29.970 (30000/1001) fps
  31. Color space                              : YUV
  32. Chroma subsampling                       : 4:2:0
  33. Bit depth                                : 8 bits
  34. Scan type                                : Progressive
  35. Bits/(Pixel*Frame)                       : 0.090
  36. Stream size                              : 2.32 GiB (98%)
  37. Writing library                          : x264 core 148 r2715 7e75228
  38. Encoding settings                        : cabac=1 / ref=3 / deblock=1:0:0 / analyse=0x1:0x111 / me=umh / subme=10 / psy=1 / psy_rd=1.00:0.00 / mixed_ref=1 / me_range=24 / chroma_me=1 / trellis=2 / 8x8dct=0 / cqm=0 / deadzone=21,11 / fast_pskip=1 / chroma_qp_offset=-2 / threads=8 / lookahead_threads=1 / sliced_threads=0 / nr=0 / decimate=1 / interlaced=0 / bluray_compat=0 / stitchable=1 / constrained_intra=0 / bframes=2 / b_pyramid=0 / b_adapt=2 / b_bias=0 / direct=3 / weightb=1 / open_gop=0 / weightp=2 / keyint=60 / keyint_min=31 / scenecut=0 / intra_refresh=0 / rc_lookahead=60 / rc=2pass / mbtree=1 / bitrate=5620 / ratetol=1.0 / qcomp=0.50 / qpmin=6 / qpmax=51 / qpstep=4 / cplxblur=20.0 / qblur=0.5 / vbv_maxrate=8430 / vbv_bufsize=11240 / nal_hrd=vbr / filler=0 / ip_ratio=1.40 / aq=1:1.00
  39. Default                                  : Yes
  40. Forced                                   : No
  41.  
  42. Audio
  43. ID                                       : 2
  44. Format                                   : E-AC-3
  45. Format/Info                              : Audio Coding 3
  46. Format settings, Endianness              : Big
  47. Codec ID                                 : A_EAC3
  48. Duration                                 : 59mn 16s
  49. Bit rate mode                            : Constant
  50. Bit rate                                 : 128 Kbps
  51. Channel(s)                               : 2 channels
  52. Channel positions                        : Front: L R
  53. Sampling rate                            : 48.0 KHz
  54. Frame rate                               : 187.500 fps (256 spf)
  55. Compression mode                         : Lossy
  56. Stream size                              : 54.3 MiB (2%)
  57. Language                                 : Korean
  58. Default                                  : No
  59. Forced                                   : No
  60.  
  61. Text #1
  62. ID                                       : 3
  63. Format                                   : UTF-8
  64. Codec ID                                 : S_TEXT/UTF8
  65. Codec ID/Info                            : UTF-8 Plain Text
  66. Duration                                 : 58mn 39s
  67. Bit rate                                 : 65 bps
  68. Count of elements                        : 917
  69. Stream size                              : 28.1 KiB (0%)
  70. Language                                 : English
  71. Default                                  : Yes
  72. Forced                                   : No
  73.  
  74. Text #2
  75. ID                                       : 4
  76. Format                                   : UTF-8
  77. Codec ID                                 : S_TEXT/UTF8
  78. Codec ID/Info                            : UTF-8 Plain Text
  79. Duration                                 : 58mn 39s
  80. Bit rate                                 : 53 bps
  81. Count of elements                        : 920
  82. Stream size                              : 23.1 KiB (0%)
  83. Title                                    : Simplified
  84. Language                                 : Chinese
  85. Default                                  : No
  86. Forced                                   : No
  87.  
  88. Text #3
  89. ID                                       : 5
  90. Format                                   : UTF-8
  91. Codec ID                                 : S_TEXT/UTF8
  92. Codec ID/Info                            : UTF-8 Plain Text
  93. Duration                                 : 58mn 38s
  94. Bit rate                                 : 55 bps
  95. Count of elements                        : 934
  96. Stream size                              : 23.7 KiB (0%)
  97. Title                                    : Traditional
  98. Language                                 : Chinese
  99. Default                                  : No
  100. Forced                                   : No
  101.  
  102. Text #4
  103. ID                                       : 6
  104. Format                                   : UTF-8
  105. Codec ID                                 : S_TEXT/UTF8
  106. Codec ID/Info                            : UTF-8 Plain Text
  107. Duration                                 : 58mn 39s
  108. Bit rate                                 : 154 bps
  109. Count of elements                        : 922
  110. Stream size                              : 66.4 KiB (0%)
  111. Language                                 : Thai
  112. Default                                  : No
  113. Forced                                   : No
  114.  
  115. Text #5
  116. ID                                       : 7
  117. Format                                   : UTF-8
  118. Codec ID                                 : S_TEXT/UTF8
  119. Codec ID/Info                            : UTF-8 Plain Text
  120. Duration                                 : 58mn 39s
  121. Bit rate                                 : 70 bps
  122. Count of elements                        : 930
  123. Stream size                              : 30.3 KiB (0%)
  124. Language                                 : French
  125. Default                                  : No
  126. Forced                                   : No
  127.  
  128. Text #6
  129. ID                                       : 8
  130. Format                                   : UTF-8
  131. Codec ID                                 : S_TEXT/UTF8
  132. Codec ID/Info                            : UTF-8 Plain Text
  133. Duration                                 : 58mn 38s
  134. Bit rate                                 : 63 bps
  135. Count of elements                        : 922
  136. Stream size                              : 27.4 KiB (0%)
  137. Language                                 : Turkish
  138. Default                                  : No
  139. Forced                                   : No
  140.  
  141. Text #7
  142. ID                                       : 9
  143. Format                                   : UTF-8
  144. Codec ID                                 : S_TEXT/UTF8
  145. Codec ID/Info                            : UTF-8 Plain Text
  146. Duration                                 : 58mn 38s
  147. Bit rate                                 : 99 bps
  148. Count of elements                        : 922
  149. Stream size                              : 42.7 KiB (0%)
  150. Language                                 : Arabic
  151. Default                                  : No
  152. Forced                                   : No
RAW Paste Data
We use cookies for various purposes including analytics. By continuing to use Pastebin, you agree to our use of cookies as described in the Cookies Policy. OK, I Understand
 
Top