Guest User

Untitled

a guest
May 30th, 2020
18
Never
Not a member of Pastebin yet? Sign Up, it unlocks many cool features!
  1. General
  2. Unique ID : 246244221561353072050889694603890460982 (0xB940E9786BDB7FBDA8EDFE893F010936)
  3. Complete name : The.Hunt.2020.BDRip.P.1080p.mkv
  4. Format : Matroska
  5. Format version : Version 4
  6. File size : 6.98 GiB
  7. Duration : 1 h 30 min
  8. Overall bit rate : 11.1 Mb/s
  9. Encoded date : UTC 2020-05-30 10:00:39
  10. Writing application : mkvmerge v7.1.0 ('Good Love') 64bit built on Jul 27 2014 13:06:55
  11. Writing library : libebml v1.3.0 + libmatroska v1.4.1
  12.  
  13. Video
  14. ID : 1
  15. Format : AVC
  16. Format/Info : Advanced Video Codec
  17. Format profile : High@L4.1
  18. Format settings : CABAC / 5 Ref Frames
  19. Format settings, CABAC : Yes
  20. Format settings, Reference fra : 5 frames
  21. Codec ID : V_MPEG4/ISO/AVC
  22. Duration : 1 h 30 min
  23. Bit rate : 10.0 Mb/s
  24. Width : 1 920 pixels
  25. Height : 804 pixels
  26. Display aspect ratio : 2.40:1
  27. Frame rate mode : Constant
  28. Frame rate : 23.976 (24000/1001) FPS
  29. Color space : YUV
  30. Chroma subsampling : 4:2:0
  31. Bit depth : 8 bits
  32. Scan type : Progressive
  33. Bits/(Pixel*Frame) : 0.270
  34. Stream size : 6.29 GiB (90%)
  35. Writing library : x264 core 160 r3000 33f9e14
  36. Encoding settings : cabac=1 / ref=5 / deblock=1:-3:-3 / analyse=0x3:0x133 / me=umh / subme=9 / psy=1 / psy_rd=1.00:0.00 / mixed_ref=1 / me_range=16 / chroma_me=1 / trellis=2 / 8x8dct=1 / cqm=0 / deadzone=21,11 / fast_pskip=0 / chroma_qp_offset=-2 / threads=16 / lookahead_threads=2 / sliced_threads=0 / nr=0 / decimate=0 / interlaced=0 / bluray_compat=0 / constrained_intra=0 / bframes=8 / b_pyramid=2 / b_adapt=2 / b_bias=0 / direct=3 / weightb=1 / open_gop=0 / weightp=2 / keyint=250 / keyint_min=23 / scenecut=40 / intra_refresh=0 / rc=crf / mbtree=0 / crf=15.6 / qcomp=0.60 / qpmin=0 / qpmax=69 / qpstep=4 / ip_ratio=1.35 / pb_ratio=1.25 / aq=3:0.85
  37. Language : English
  38. Default : Yes
  39. Forced : No
  40. Color range : Limited
  41. Matrix coefficients : BT.709
  42.  
  43. Audio #1
  44. ID : 2
  45. Format : AC-3
  46. Format/Info : Audio Coding 3
  47. Commercial name : Dolby Digital
  48. Codec ID : A_AC3
  49. Duration : 1 h 30 min
  50. Bit rate mode : Constant
  51. Bit rate : 448 kb/s
  52. Channel(s) : 6 channels
  53. Channel layout : L R C LFE Ls Rs
  54. Sampling rate : 48.0 kHz
  55. Frame rate : 31.250 FPS (1536 SPF)
  56. Compression mode : Lossy
  57. Stream size : 288 MiB (4%)
  58. Title : MVO | HDrezka Studio
  59. Language : Russian
  60. Service kind : Complete Main
  61. Default : Yes
  62. Forced : No
  63.  
  64. Audio #2
  65. ID : 3
  66. Format : AC-3
  67. Format/Info : Audio Coding 3
  68. Commercial name : Dolby Digital
  69. Codec ID : A_AC3
  70. Duration : 1 h 30 min
  71. Bit rate mode : Constant
  72. Bit rate : 640 kb/s
  73. Channel(s) : 6 channels
  74. Channel layout : L R C LFE Ls Rs
  75. Sampling rate : 48.0 kHz
  76. Frame rate : 31.250 FPS (1536 SPF)
  77. Compression mode : Lossy
  78. Stream size : 412 MiB (6%)
  79. Language : English
  80. Service kind : Complete Main
  81. Default : No
  82. Forced : No
  83.  
  84. Text #1
  85. ID : 4
  86. Format : UTF-8
  87. Codec ID : S_TEXT/UTF8
  88. Codec ID/Info : UTF-8 Plain Text
  89. Duration : 1 min 0 s
  90. Bit rate : 193 b/s
  91. Count of elements : 18
  92. Stream size : 1.43 KiB (0%)
  93. Title : Forced
  94. Language : Russian
  95. Default : Yes
  96. Forced : No
  97.  
  98. Text #2
  99. ID : 5
  100. Format : UTF-8
  101. Codec ID : S_TEXT/UTF8
  102. Codec ID/Info : UTF-8 Plain Text
  103. Duration : 1 h 24 min
  104. Bit rate : 90 b/s
  105. Count of elements : 1239
  106. Stream size : 55.4 KiB (0%)
  107. Title : Full
  108. Language : Russian
  109. Default : No
  110. Forced : No
  111.  
  112. Text #3
  113. ID : 6
  114. Format : UTF-8
  115. Codec ID : S_TEXT/UTF8
  116. Codec ID/Info : UTF-8 Plain Text
  117. Duration : 1 h 22 min
  118. Bit rate : 57 b/s
  119. Count of elements : 1278
  120. Stream size : 34.9 KiB (0%)
  121. Language : English
  122. Default : No
  123. Forced : No
  124.  
  125. Text #4
  126. ID : 7
  127. Format : UTF-8
  128. Codec ID : S_TEXT/UTF8
  129. Codec ID/Info : UTF-8 Plain Text
  130. Duration : 1 h 29 min
  131. Bit rate : 62 b/s
  132. Count of elements : 1572
  133. Stream size : 40.9 KiB (0%)
  134. Title : SDH
  135. Language : English
  136. Default : No
  137. Forced : No
  138.  
  139. Menu
  140. 00:00:00.000 : en:Chapter 01
  141. 00:02:13.550 : en:Chapter 02
  142. 00:06:57.083 : en:Chapter 03
  143. 00:10:44.644 : en:Chapter 04
  144. 00:15:34.725 : en:Chapter 05
  145. 00:18:05.668 : en:Chapter 06
  146. 00:22:32.268 : en:Chapter 07
  147. 00:25:22.229 : en:Chapter 08
  148. 00:31:54.579 : en:Chapter 09
  149. 00:38:49.869 : en:Chapter 10
  150. 00:43:11.881 : en:Chapter 11
  151. 00:49:48.444 : en:Chapter 12
  152. 00:52:26.185 : en:Chapter 13
  153. 00:56:58.081 : en:Chapter 14
  154. 01:00:44.432 : en:Chapter 15
  155. 01:05:08.655 : en:Chapter 16
  156. 01:08:11.337 : en:Chapter 17
  157. 01:14:47.817 : en:Chapter 18
  158. 01:22:04.837 : en:Chapter 19
  159. 01:24:55.048 : en:Chapter 20
RAW Paste Data