iMN0

Waterboy.1998.1080p.BluRay.DTS.x264-HDC.mkv

Jul 16th, 2021
131
Never
Not a member of Pastebin yet? Sign Up, it unlocks many cool features!
  1. General
  2. Unique ID : 236397947291874336378963435744528509375 (0xB1D896AB16C2F69CAE06FBFE023129BF)
  3. Complete name : Waterboy.1998.1080p.BluRay.DTS.x264-HDC.mkv
  4. Format : Matroska
  5. Format version : Version 1
  6. File size : 7.26 GiB
  7. Duration : 1 h 29 min
  8. Overall bit rate : 11.6 Mb/s
  9. Encoded date : UTC 2009-08-09 09:54:24
  10. Writing application : mkvmerge v2.5.1 ('He Wasn't There') built on Feb 22 2009 18:19:47
  11. Writing library : libebml v0.7.7 + libmatroska v0.8.1
  12.  
  13. Video
  14. ID : 1
  15. Format : AVC
  16. Format/Info : Advanced Video Codec
  17. Format profile : High@L4.1
  18. Format settings : CABAC / 4 Ref Frames
  19. Format settings, CABAC : Yes
  20. Format settings, Reference frames : 4 frames
  21. Codec ID : V_MPEG4/ISO/AVC
  22. Duration : 1 h 29 min
  23. Bit rate : 10.1 Mb/s
  24. Width : 1 920 pixels
  25. Height : 1 040 pixels
  26. Display aspect ratio : 1.85:1
  27. Frame rate mode : Constant
  28. Frame rate : 23.976 (24000/1001) FPS
  29. Color space : YUV
  30. Chroma subsampling : 4:2:0
  31. Bit depth : 8 bits
  32. Scan type : Progressive
  33. Bits/(Pixel*Frame) : 0.211
  34. Stream size : 6.17 GiB (85%)
  35. Title : 10 Mbps AVC MPEG-4
  36. Writing library : x264 core 68 r1179M 96e2229
  37. Encoding settings : cabac=1 / ref=4 / deblock=1:-3:-3 / analyse=0x3:0x113 / me=umh / subme=9 / psy_rd=1.2:0.0 / mixed_ref=1 / me_range=24 / chroma_me=1 / trellis=2 / 8x8dct=1 / cqm=0 / deadzone=21,11 / chroma_qp_offset=-2 / threads=6 / nr=0 / decimate=1 / mbaff=0 / bframes=3 / b_pyramid=1 / b_adapt=2 / b_bias=0 / direct=3 / wpredb=1 / keyint=250 / keyint_min=25 / scenecut=40 / rc=2pass / bitrate=10090 / ratetol=1.0 / qcomp=0.60 / qpmin=10 / qpmax=51 / qpstep=4 / cplxblur=20.0 / qblur=0.5 / vbv_maxrate=38000 / vbv_bufsize=38000 / ip_ratio=1.40 / pb_ratio=1.30 / aq=1:0.80
  38. Language : German
  39. Default : Yes
  40. Forced : No
  41.  
  42. Audio
  43. ID : 2
  44. Format : DTS
  45. Format/Info : Digital Theater Systems
  46. Codec ID : A_DTS
  47. Duration : 1 h 29 min
  48. Bit rate mode : Constant
  49. Bit rate : 1 509 kb/s
  50. Channel(s) : 6 channels
  51. Channel layout : C L R Ls Rs LFE
  52. Sampling rate : 48.0 kHz
  53. Frame rate : 93.750 FPS (512 SPF)
  54. Bit depth : 24 bits
  55. Compression mode : Lossy
  56. Stream size : 968 MiB (13%)
  57. Title : 5.1 DTS @ 1536 kbps
  58. Language : English
  59. Default : Yes
  60. Forced : No
  61.  
  62. Text #1
  63. ID : 3
  64. Format : UTF-8
  65. Codec ID : S_TEXT/UTF8
  66. Codec ID/Info : UTF-8 Plain Text
  67. Language : English
  68. Default : Yes
  69. Forced : No
  70.  
  71. Text #2
  72. ID : 4
  73. Format : UTF-8
  74. Codec ID : S_TEXT/UTF8
  75. Codec ID/Info : UTF-8 Plain Text
  76. Title : FORCED
  77. Language : French
  78. Default : No
  79. Forced : No
  80.  
  81. Text #3
  82. ID : 5
  83. Format : UTF-8
  84. Codec ID : S_TEXT/UTF8
  85. Codec ID/Info : UTF-8 Plain Text
  86. Title : FORCED
  87. Language : Portuguese
  88. Default : No
  89. Forced : No
  90.  
  91. Text #4
  92. ID : 6
  93. Format : UTF-8
  94. Codec ID : S_TEXT/UTF8
  95. Codec ID/Info : UTF-8 Plain Text
  96. Title : FORCED
  97. Language : Spanish
  98. Default : No
  99. Forced : No
  100.  
  101. Menu
  102. 00:00:00.000 : en:00:00:00.000
  103. 00:01:07.067 : en:00:01:07.067
  104. 00:03:21.576 : en:00:03:21.576
  105. 00:07:49.219 : en:00:07:49.219
  106. 00:10:40.306 : en:00:10:40.306
  107. 00:16:10.136 : en:00:16:10.136
  108. 00:19:43.891 : en:00:19:43.891
  109. 00:24:00.272 : en:00:24:00.272
  110. 00:26:19.286 : en:00:26:19.286
  111. 00:31:11.912 : en:00:31:11.912
  112. 00:36:35.485 : en:00:36:35.485
  113. 00:40:56.037 : en:00:40:56.037
  114. 00:41:43.918 : en:00:41:43.918
  115. 00:44:46.642 : en:00:44:46.642
  116. 00:47:09.744 : en:00:47:09.744
  117. 00:52:08.292 : en:00:52:08.292
  118. 00:55:58.939 : en:00:55:58.939
  119. 00:59:33.111 : en:00:59:33.111
  120. 01:02:08.308 : en:01:02:08.308
  121. 01:07:31.297 : en:01:07:31.297
  122. 01:10:25.054 : en:01:10:25.054
  123. 01:13:51.969 : en:01:13:51.969
  124. 01:20:46.300 : en:01:20:46.300
  125. 01:24:04.331 : en:01:24:04.331
  126. 01:25:33.837 : en:01:25:33.837
RAW Paste Data