SHARE
TWEET

Ignition (1997 DOS / Win game) GOG release Cue sheet

fant0men Jul 13th, 2019 (edited) 153 Never
Not a member of Pastebin yet? Sign Up, it unlocks many cool features!
  1. FILE "game.gog" BINARY
  2.   TRACK 01 MODE1/2352
  3.     INDEX 01 00:00:00
  4.   TRACK 02 AUDIO
  5.     INDEX 01 05:37:40
  6.   TRACK 03 AUDIO
  7.     INDEX 01 10:45:51
  8.   TRACK 04 AUDIO
  9.     INDEX 01 17:48:16
  10.   TRACK 05 AUDIO
  11.     INDEX 01 22:53:52
  12.   TRACK 06 AUDIO
  13.     INDEX 01 27:32:30
  14.   TRACK 07 AUDIO
  15.     INDEX 01 32:25:36
  16.   TRACK 08 AUDIO
  17.     INDEX 01 38:03:44
RAW Paste Data
We use cookies for various purposes including analytics. By continuing to use Pastebin, you agree to our use of cookies as described in the Cookies Policy. OK, I Understand
 
Top