Guest User

Untitled

a guest
Jan 15th, 2021
604
Never
Not a member of Pastebin yet? Sign Up, it unlocks many cool features!
  1. General
  2. Unique ID : 219976193341700698813651238603167660506 (0xA57DDFB01B0F3B5D8EC8616A42A879DA)
  3. Complete name : E:\VideoFirst\1\Outside.the.Wire.2021.NF.WEB-DL.1080p.HDR.seleZen.mkv
  4. Format : Matroska
  5. Format version : Version 4
  6. File size : 7.87 GiB
  7. Duration : 1 h 55 min
  8. Overall bit rate : 9 727 kb/s
  9. Movie name : Outside the Wire 2021 from seleZen
  10. Encoded date : UTC 2021-01-16 02:47:52
  11. Writing application : mkvmerge v40.0.0 ('Old Town Road + Pony') 64-bit
  12. Writing library : libebml v1.3.9 + libmatroska v1.5.2
  13.  
  14. Video
  15. ID : 1
  16. Format : HEVC
  17. Format/Info : High Efficiency Video Coding
  18. Format profile : Main 10@L4@Main
  19. HDR format : SMPTE ST 2086, HDR10 compatible
  20. Codec ID : V_MPEGH/ISO/HEVC
  21. Duration : 1 h 54 min
  22. Bit rate : 3 883 kb/s
  23. Width : 1 920 pixels
  24. Height : 1 080 pixels
  25. Display aspect ratio : 16:9
  26. Frame rate mode : Constant
  27. Frame rate : 24.000 FPS
  28. Color space : YUV
  29. Chroma subsampling : 4:2:0 (Type 2)
  30. Bit depth : 10 bits
  31. Bits/(Pixel*Frame) : 0.078
  32. Stream size : 3.10 GiB (39%)
  33. Language : English
  34. Default : Yes
  35. Forced : No
  36. Color range : Limited
  37. Color primaries : BT.2020
  38. Transfer characteristics : PQ
  39. Matrix coefficients : BT.2020 non-constant
  40. Mastering display color pri : Display P3
  41. Mastering display luminance : min: 0.0001 cd/m2, max: 1000 cd/m2
  42. Maximum Content Light Level : 1147 cd/m2
  43. Maximum Frame-Average Light : 539 cd/m2
  44.  
  45. Audio #1
  46. ID : 2
  47. Format : E-AC-3
  48. Format/Info : Enhanced AC-3
  49. Commercial name : Dolby Digital Plus
  50. Codec ID : A_EAC3
  51. Duration : 1 h 55 min
  52. Bit rate mode : Constant
  53. Bit rate : 640 kb/s
  54. Channel(s) : 6 channels
  55. Channel layout : L R C LFE Ls Rs
  56. Sampling rate : 48.0 kHz
  57. Frame rate : 31.250 FPS (1536 SPF)
  58. Compression mode : Lossy
  59. Stream size : 530 MiB (7%)
  60. Title : Dub [Netflix]
  61. Language : Russian
  62. Service kind : Complete Main
  63. Default : Yes
  64. Forced : Yes
  65.  
  66. Audio #2
  67. ID : 3
  68. Format : AC-3
  69. Format/Info : Audio Coding 3
  70. Commercial name : Dolby Digital
  71. Codec ID : A_AC3
  72. Duration : 1 h 55 min
  73. Bit rate mode : Constant
  74. Bit rate : 640 kb/s
  75. Channel(s) : 6 channels
  76. Channel layout : L R C LFE Ls Rs
  77. Sampling rate : 48.0 kHz
  78. Frame rate : 31.250 FPS (1536 SPF)
  79. Compression mode : Lossy
  80. Stream size : 530 MiB (7%)
  81. Title : Dub [Netflix]
  82. Language : Russian
  83. Service kind : Complete Main
  84. Default : No
  85. Forced : No
  86.  
  87. Audio #3
  88. ID : 4
  89. Format : E-AC-3
  90. Format/Info : Enhanced AC-3
  91. Commercial name : Dolby Digital Plus
  92. Codec ID : A_EAC3
  93. Duration : 1 h 55 min
  94. Bit rate mode : Constant
  95. Bit rate : 640 kb/s
  96. Channel(s) : 6 channels
  97. Channel layout : L R C LFE Ls Rs
  98. Sampling rate : 48.0 kHz
  99. Frame rate : 31.250 FPS (1536 SPF)
  100. Compression mode : Lossy
  101. Stream size : 530 MiB (7%)
  102. Language : Ukrainian
  103. Service kind : Complete Main
  104. Default : No
  105. Forced : No
  106.  
  107. Audio #4
  108. ID : 5
  109. Format : AC-3
  110. Format/Info : Audio Coding 3
  111. Commercial name : Dolby Digital
  112. Codec ID : A_AC3
  113. Duration : 1 h 55 min
  114. Bit rate mode : Constant
  115. Bit rate : 640 kb/s
  116. Channel(s) : 6 channels
  117. Channel layout : L R C LFE Ls Rs
  118. Sampling rate : 48.0 kHz
  119. Frame rate : 31.250 FPS (1536 SPF)
  120. Compression mode : Lossy
  121. Stream size : 530 MiB (7%)
  122. Language : English
  123. Service kind : Complete Main
  124. Default : No
  125. Forced : No
  126.  
  127. Audio #5
  128. ID : 6
  129. Format : E-AC-3 JOC
  130. Format/Info : Enhanced AC-3 with Joint Object Coding
  131. Commercial name : Dolby Digital Plus with Dolby Atmos
  132. Codec ID : A_EAC3
  133. Duration : 1 h 55 min
  134. Bit rate mode : Constant
  135. Bit rate : 768 kb/s
  136. Channel(s) : 6 channels
  137. Channel layout : L R C LFE Ls Rs
  138. Sampling rate : 48.0 kHz
  139. Frame rate : 31.250 FPS (1536 SPF)
  140. Compression mode : Lossy
  141. Stream size : 637 MiB (8%)
  142. Language : English
  143. Service kind : Complete Main
  144. Default : No
  145. Forced : No
  146. Complexity index : 16
  147. Number of dynamic objects : 15
  148. Bed channel count : 1 channel
  149. Bed channel configuration : LFE
  150.  
  151. Audio #6
  152. ID : 7
  153. Format : E-AC-3
  154. Format/Info : Enhanced AC-3
  155. Commercial name : Dolby Digital Plus
  156. Codec ID : A_EAC3
  157. Duration : 1 h 55 min
  158. Bit rate mode : Constant
  159. Bit rate : 640 kb/s
  160. Channel(s) : 6 channels
  161. Channel layout : L R C LFE Ls Rs
  162. Sampling rate : 48.0 kHz
  163. Frame rate : 31.250 FPS (1536 SPF)
  164. Compression mode : Lossy
  165. Stream size : 530 MiB (7%)
  166. Language : French
  167. Service kind : Complete Main
  168. Default : No
  169. Forced : No
  170.  
  171. Audio #7
  172. ID : 8
  173. Format : E-AC-3
  174. Format/Info : Enhanced AC-3
  175. Commercial name : Dolby Digital Plus
  176. Codec ID : A_EAC3
  177. Duration : 1 h 55 min
  178. Bit rate mode : Constant
  179. Bit rate : 640 kb/s
  180. Channel(s) : 6 channels
  181. Channel layout : L R C LFE Ls Rs
  182. Sampling rate : 48.0 kHz
  183. Frame rate : 31.250 FPS (1536 SPF)
  184. Compression mode : Lossy
  185. Stream size : 530 MiB (7%)
  186. Language : German
  187. Service kind : Complete Main
  188. Default : No
  189. Forced : No
  190.  
  191. Audio #8
  192. ID : 9
  193. Format : E-AC-3
  194. Format/Info : Enhanced AC-3
  195. Commercial name : Dolby Digital Plus
  196. Codec ID : A_EAC3
  197. Duration : 1 h 55 min
  198. Bit rate mode : Constant
  199. Bit rate : 640 kb/s
  200. Channel(s) : 6 channels
  201. Channel layout : L R C LFE Ls Rs
  202. Sampling rate : 48.0 kHz
  203. Frame rate : 31.250 FPS (1536 SPF)
  204. Compression mode : Lossy
  205. Stream size : 530 MiB (7%)
  206. Language : Italian
  207. Service kind : Complete Main
  208. Default : No
  209. Forced : No
  210.  
  211. Audio #9
  212. ID : 10
  213. Format : E-AC-3
  214. Format/Info : Enhanced AC-3
  215. Commercial name : Dolby Digital Plus
  216. Codec ID : A_EAC3
  217. Duration : 1 h 55 min
  218. Bit rate mode : Constant
  219. Bit rate : 640 kb/s
  220. Channel(s) : 6 channels
  221. Channel layout : L R C LFE Ls Rs
  222. Sampling rate : 48.0 kHz
  223. Frame rate : 31.250 FPS (1536 SPF)
  224. Compression mode : Lossy
  225. Stream size : 530 MiB (7%)
  226. Language : Spanish
  227. Service kind : Complete Main
  228. Default : No
  229. Forced : No
  230.  
  231. Text #1
  232. ID : 11
  233. Format : UTF-8
  234. Codec ID : S_TEXT/UTF8
  235. Codec ID/Info : UTF-8 Plain Text
  236. Duration : 1 h 53 min
  237. Bit rate : 1 b/s
  238. Count of elements : 29
  239. Stream size : 1.27 KiB (0%)
  240. Title : Forced
  241. Language : Russian
  242. Default : Yes
  243. Forced : Yes
  244.  
  245. Text #2
  246. ID : 12
  247. Format : UTF-8
  248. Codec ID : S_TEXT/UTF8
  249. Codec ID/Info : UTF-8 Plain Text
  250. Duration : 1 h 53 min
  251. Bit rate : 73 b/s
  252. Count of elements : 1220
  253. Stream size : 61.3 KiB (0%)
  254. Title : Full
  255. Language : Russian
  256. Default : No
  257. Forced : No
  258.  
  259. Text #3
  260. ID : 13
  261. Format : UTF-8
  262. Codec ID : S_TEXT/UTF8
  263. Codec ID/Info : UTF-8 Plain Text
  264. Duration : 1 h 53 min
  265. Bit rate : 1 b/s
  266. Count of elements : 28
  267. Stream size : 1.23 KiB (0%)
  268. Title : Forced
  269. Language : Ukrainian
  270. Default : No
  271. Forced : No
  272.  
  273. Text #4
  274. ID : 14
  275. Format : UTF-8
  276. Codec ID : S_TEXT/UTF8
  277. Codec ID/Info : UTF-8 Plain Text
  278. Duration : 1 h 53 min
  279. Bit rate : 73 b/s
  280. Count of elements : 1265
  281. Stream size : 61.6 KiB (0%)
  282. Title : Full
  283. Language : Ukrainian
  284. Default : No
  285. Forced : No
  286.  
  287. Text #5
  288. ID : 15
  289. Format : UTF-8
  290. Codec ID : S_TEXT/UTF8
  291. Codec ID/Info : UTF-8 Plain Text
  292. Duration : 33 min 4 s
  293. Bit rate : 0 b/s
  294. Count of elements : 14
  295. Stream size : 243 Bytes (0%)
  296. Title : Forced
  297. Language : English
  298. Default : No
  299. Forced : No
  300.  
  301. Text #6
  302. ID : 16
  303. Format : UTF-8
  304. Codec ID : S_TEXT/UTF8
  305. Codec ID/Info : UTF-8 Plain Text
  306. Duration : 1 h 45 min
  307. Bit rate : 64 b/s
  308. Count of elements : 1651
  309. Stream size : 49.7 KiB (0%)
  310. Title : SDH
  311. Language : English
  312. Default : No
  313. Forced : No
  314.  
  315. Text #7
  316. ID : 17
  317. Format : UTF-8
  318. Codec ID : S_TEXT/UTF8
  319. Codec ID/Info : UTF-8 Plain Text
  320. Duration : 1 h 53 min
  321. Bit rate : 0 b/s
  322. Count of elements : 26
  323. Stream size : 765 Bytes (0%)
  324. Title : Forced
  325. Language : French
  326. Default : No
  327. Forced : No
  328.  
  329. Text #8
  330. ID : 18
  331. Format : UTF-8
  332. Codec ID : S_TEXT/UTF8
  333. Codec ID/Info : UTF-8 Plain Text
  334. Duration : 1 h 53 min
  335. Bit rate : 44 b/s
  336. Count of elements : 1257
  337. Stream size : 37.3 KiB (0%)
  338. Title : Full
  339. Language : French
  340. Default : No
  341. Forced : No
  342.  
  343. Text #9
  344. ID : 19
  345. Format : UTF-8
  346. Codec ID : S_TEXT/UTF8
  347. Codec ID/Info : UTF-8 Plain Text
  348. Duration : 1 h 53 min
  349. Bit rate : 0 b/s
  350. Count of elements : 26
  351. Stream size : 705 Bytes (0%)
  352. Title : Forced
  353. Language : German
  354. Default : No
  355. Forced : No
  356.  
  357. Text #10
  358. ID : 20
  359. Format : UTF-8
  360. Codec ID : S_TEXT/UTF8
  361. Codec ID/Info : UTF-8 Plain Text
  362. Duration : 1 h 53 min
  363. Bit rate : 44 b/s
  364. Count of elements : 1176
  365. Stream size : 36.9 KiB (0%)
  366. Title : Full
  367. Language : German
  368. Default : No
  369. Forced : No
  370.  
  371. Text #11
  372. ID : 21
  373. Format : UTF-8
  374. Codec ID : S_TEXT/UTF8
  375. Codec ID/Info : UTF-8 Plain Text
  376. Duration : 1 h 53 min
  377. Bit rate : 0 b/s
  378. Count of elements : 27
  379. Stream size : 744 Bytes (0%)
  380. Title : Forced
  381. Language : Italian
  382. Default : No
  383. Forced : No
  384.  
  385. Text #12
  386. ID : 22
  387. Format : UTF-8
  388. Codec ID : S_TEXT/UTF8
  389. Codec ID/Info : UTF-8 Plain Text
  390. Duration : 1 h 53 min
  391. Bit rate : 42 b/s
  392. Count of elements : 1181
  393. Stream size : 35.4 KiB (0%)
  394. Title : Full
  395. Language : Italian
  396. Default : No
  397. Forced : No
  398.  
  399. Text #13
  400. ID : 23
  401. Format : UTF-8
  402. Codec ID : S_TEXT/UTF8
  403. Codec ID/Info : UTF-8 Plain Text
  404. Duration : 1 h 53 min
  405. Bit rate : 0 b/s
  406. Count of elements : 26
  407. Stream size : 771 Bytes (0%)
  408. Title : Forced
  409. Language : Spanish
  410. Default : No
  411. Forced : No
  412.  
  413. Text #14
  414. ID : 24
  415. Format : UTF-8
  416. Codec ID : S_TEXT/UTF8
  417. Codec ID/Info : UTF-8 Plain Text
  418. Duration : 1 h 53 min
  419. Bit rate : 44 b/s
  420. Count of elements : 1198
  421. Stream size : 37.0 KiB (0%)
  422. Title : Full
  423. Language : Spanish
  424. Default : No
  425. Forced : No
  426.  
  427.  
RAW Paste Data