SHARE
TWEET

Skyscraper.2018.1080p.BluRay.REMUX.AVC.Atmos-EPSiLON.mkv

iMN0 Oct 1st, 2018 79 Never
Not a member of Pastebin yet? Sign Up, it unlocks many cool features!
  1. General
  2. Unique ID                                : 62455732707796313921439464224413168550 (0x2EFC895D711B1EEA4D49072EF807B3A6)
  3. Complete name                            : Skyscraper.2018.1080p.BluRay.REMUX.AVC.Atmos-EPSiLON.mkv
  4. Format                                   : Matroska
  5. Format version                           : Version 4 / Version 2
  6. File size                                : 26.7 GiB
  7. Duration                                 : 1h 42mn
  8. Overall bit rate mode                    : Variable
  9. Overall bit rate                         : 37.3 Mbps
  10. Encoded date                             : UTC 2018-10-01 19:01:31
  11. Writing application                      : mkvmerge v27.0.0 ('Metropolis') 64-bit
  12. Writing library                          : libebml v1.3.6 + libmatroska v1.4.9
  13.  
  14. Video
  15. ID                                       : 1
  16. Format                                   : AVC
  17. Format/Info                              : Advanced Video Codec
  18. Format profile                           : High@L4.1
  19. Format settings, CABAC                   : Yes
  20. Format settings, ReFrames                : 4 frames
  21. Codec ID                                 : V_MPEG4/ISO/AVC
  22. Duration                                 : 1h 42mn
  23. Bit rate mode                            : Variable
  24. Bit rate                                 : 33.7 Mbps
  25. Maximum bit rate                         : 37.6 Mbps
  26. Width                                    : 1 920 pixels
  27. Height                                   : 1 080 pixels
  28. Display aspect ratio                     : 16:9
  29. Frame rate mode                          : Constant
  30. Frame rate                               : 23.976 (24000/1001) fps
  31. Color space                              : YUV
  32. Chroma subsampling                       : 4:2:0
  33. Bit depth                                : 8 bits
  34. Scan type                                : Progressive
  35. Bits/(Pixel*Frame)                       : 0.677
  36. Stream size                              : 24.1 GiB (90%)
  37. Title                                    : MPEG-4 AVC Video / 33823 kbps / 1080p / 23.976 fps / 16:9 / High Profile 4.1
  38. Language                                 : English
  39. Default                                  : Yes
  40. Forced                                   : No
  41.  
  42. Audio #1
  43. ID                                       : 2
  44. Format                                   : Atmos / TrueHD
  45. Codec ID                                 : A_TRUEHD
  46. Duration                                 : 1h 42mn
  47. Bit rate mode                            : Variable
  48. Bit rate                                 : 2 836 Kbps
  49. Maximum bit rate                         : 5 022 Kbps
  50. Channel(s)                               : Object Based / 8 channels
  51. Channel positions                        : Object Based / Front: L C R, Side: L R, Back: L R, LFE
  52. Sampling rate                            :  / 48.0 KHz
  53. Frame rate                               : 1 200.000 fps (40 spf)
  54. Compression mode                         : Lossless
  55. Stream size                              : 2.03 GiB (8%)
  56. Title                                    : Dolby TrueHD/Atmos Audio / 7.1 / 48 kHz / 2836 kbps / 24-bit
  57. Language                                 : English
  58. Default                                  : Yes
  59. Forced                                   : No
  60.  
  61. Audio #2
  62. ID                                       : 3
  63. Format                                   : AC-3
  64. Format/Info                              : Audio Coding 3
  65. Mode extension                           : CM (complete main)
  66. Format settings, Endianness              : Big
  67. Codec ID                                 : A_AC3
  68. Duration                                 : 1h 42mn
  69. Bit rate mode                            : Constant
  70. Bit rate                                 : 448 Kbps
  71. Channel(s)                               : 6 channels
  72. Channel positions                        : Front: L C R, Side: L R, LFE
  73. Sampling rate                            : 48.0 KHz
  74. Frame rate                               : 31.250 fps (1536 spf)
  75. Compression mode                         : Lossy
  76. Stream size                              : 328 MiB (1%)
  77. Title                                    : Compatibility Track / Dolby Digital Audio / 5.1 / 48 kHz / 448 kbps
  78. Language                                 : English
  79. Default                                  : No
  80. Forced                                   : No
  81.  
  82. Audio #3
  83. ID                                       : 4
  84. Format                                   : AC-3
  85. Format/Info                              : Audio Coding 3
  86. Format profile                           : Dolby Digital
  87. Mode extension                           : CM (complete main)
  88. Format settings, Endianness              : Big
  89. Codec ID                                 : A_AC3
  90. Duration                                 : 1h 42mn
  91. Bit rate mode                            : Constant
  92. Bit rate                                 : 192 Kbps
  93. Channel(s)                               : 2 channels
  94. Channel positions                        : Front: L R
  95. Sampling rate                            : 48.0 KHz
  96. Frame rate                               : 31.250 fps (1536 spf)
  97. Compression mode                         : Lossy
  98. Stream size                              : 141 MiB (1%)
  99. Title                                    : Commentary by director Rawson Marshall Thurber
  100. Language                                 : English
  101. Default                                  : No
  102. Forced                                   : No
  103.  
  104. Text #1
  105. ID                                       : 5
  106. Format                                   : PGS
  107. Codec ID                                 : S_HDMV/PGS
  108. Codec ID/Info                            : Picture based subtitle format used on BDs/HD-DVDs
  109. Duration                                 : 1h 32mn
  110. Bit rate                                 : 38.5 Kbps
  111. Count of elements                        : 2648
  112. Stream size                              : 25.4 MiB (0%)
  113. Title                                    : SDH
  114. Language                                 : English
  115. Default                                  : No
  116. Forced                                   : No
  117.  
  118. Text #2
  119. ID                                       : 6
  120. Format                                   : PGS
  121. Codec ID                                 : S_HDMV/PGS
  122. Codec ID/Info                            : Picture based subtitle format used on BDs/HD-DVDs
  123. Duration                                 : 1h 41mn
  124. Bit rate                                 : 26.3 Kbps
  125. Count of elements                        : 2156
  126. Stream size                              : 19.1 MiB (0%)
  127. Language                                 : French
  128. Default                                  : No
  129. Forced                                   : No
  130.  
  131. Text #3
  132. ID                                       : 7
  133. Format                                   : PGS
  134. Codec ID                                 : S_HDMV/PGS
  135. Codec ID/Info                            : Picture based subtitle format used on BDs/HD-DVDs
  136. Duration                                 : 1h 41mn
  137. Bit rate                                 : 24.9 Kbps
  138. Count of elements                        : 2238
  139. Stream size                              : 18.1 MiB (0%)
  140. Title                                    : Latin American
  141. Language                                 : Spanish
  142. Default                                  : No
  143. Forced                                   : No
  144.  
  145. Menu
  146. 00:00:00.000                             : en:Chapter 01
  147. 00:04:25.139                             : en:Chapter 02
  148. 00:10:07.356                             : en:Chapter 03
  149. 00:16:09.927                             : en:Chapter 04
  150. 00:21:12.604                             : en:Chapter 05
  151. 00:25:34.991                             : en:Chapter 06
  152. 00:30:11.726                             : en:Chapter 07
  153. 00:35:23.913                             : en:Chapter 08
  154. 00:40:07.113                             : en:Chapter 09
  155. 00:47:18.961                             : en:Chapter 10
  156. 00:52:10.252                             : en:Chapter 11
  157. 00:58:16.784                             : en:Chapter 12
  158. 01:02:02.969                             : en:Chapter 13
  159. 01:05:29.634                             : en:Chapter 14
  160. 01:09:59.403                             : en:Chapter 15
  161. 01:14:31.425                             : en:Chapter 16
  162. 01:17:18.258                             : en:Chapter 17
  163. 01:23:33.425                             : en:Chapter 18
  164. 01:27:46.219                             : en:Chapter 19
  165. 01:32:55.152                             : en:Chapter 20
  166. 01:42:22.511                             : en:Chapter 21
RAW Paste Data
We use cookies for various purposes including analytics. By continuing to use Pastebin, you agree to our use of cookies as described in the Cookies Policy. OK, I Understand
 
Top