SHARE
TWEET

After Maria WEB-DL 720p

dirtyharrys May 26th, 2019 95 Never
Not a member of Pastebin yet? Sign Up, it unlocks many cool features!
  1. General
  2. Unique ID                   : 42238384415503249227098397959096741948 (0x1FC6D122A4323C4A34ADC01E8CE1B03C)
  3. Complete name               : E:\V0VCQWZ0ZXJNYXJpYQ.mkv
  4. Format                      : Matroska
  5. Format version              : Version 4
  6. File size                   : 864 MiB
  7. Duration                    : 37 min 32 s
  8. Overall bit rate mode       : Variable
  9. Overall bit rate            : 3 219 kb/s
  10. Movie name                  : After Maria WEB-DL / After Maria WEB-DL
  11. Encoded date                : UTC 2019-05-25 08:08:01
  12. Writing application         : mkvmerge v30.1.0 ('Forever And More') 32-bit
  13. Writing library             : libebml v1.3.6 + libmatroska v1.4.9
  14. Copyright                   : Movies HDs 2019
  15. ARTIST                      : HarshLearner
  16.  
  17. Video
  18. ID                          : 1
  19. Format                      : AVC
  20. Format/Info                 : Advanced Video Codec
  21. Format profile              : Main@L3.1
  22. Format settings             : CABAC / 3 Ref Frames
  23. Format settings, CABAC      : Yes
  24. Format settings, ReFrames   : 3 frames
  25. Codec ID                    : V_MPEG4/ISO/AVC
  26. Duration                    : 37 min 32 s
  27. Bit rate mode               : Variable
  28. Bit rate                    : 2 610 kb/s
  29. Maximum bit rate            : 3 915 kb/s
  30. Width                       : 1 280 pixels
  31. Height                      : 720 pixels
  32. Display aspect ratio        : 16:9
  33. Frame rate mode             : Constant
  34. Frame rate                  : 23.976 (24000/1001) FPS
  35. Color space                 : YUV
  36. Chroma subsampling          : 4:2:0
  37. Bit depth                   : 8 bits
  38. Scan type                   : Progressive
  39. Bits/(Pixel*Frame)          : 0.118
  40. Stream size                 : 692 MiB (80%)
  41. Title                       : After Maria
  42. Writing library             : x264 core 148 r2715 7e75228
  43. Default                     : Yes
  44. Forced                      : No
  45.  
  46. Audio
  47. ID                          : 2
  48. Format                      : E-AC-3
  49. Format/Info                 : Enhanced AC-3
  50. Commercial name             : Dolby Digital Plus
  51. Codec ID                    : A_EAC3
  52. Duration                    : 37 min 32 s
  53. Bit rate mode               : Constant
  54. Bit rate                    : 640 kb/s
  55. Channel(s)                  : 6 channels
  56. Channel layout              : L R C LFE Ls Rs
  57. Sampling rate               : 48.0 kHz
  58. Frame rate                  : 31.250 FPS (1536 SPF)
  59. Compression mode            : Lossy
  60. Stream size                 : 172 MiB (20%)
  61. Language                    : English
  62. Service kind                : Complete Main
  63. Default                     : Yes
  64. Forced                      : No
  65.  
  66. Text #1
  67. ID                          : 3
  68. Format                      : UTF-8
  69. Codec ID                    : S_TEXT/UTF8
  70. Codec ID/Info               : UTF-8 Plain Text
  71. Duration                    : 35 min 43 s
  72. Bit rate                    : 70 b/s
  73. Count of elements           : 454
  74. Stream size                 : 18.5 KiB (0%)
  75. Language                    : English
  76. Default                     : No
  77. Forced                      : No
  78.  
  79. Text #2
  80. ID                          : 4
  81. Format                      : UTF-8
  82. Codec ID                    : S_TEXT/UTF8
  83. Codec ID/Info               : UTF-8 Plain Text
  84. Duration                    : 35 min 26 s
  85. Bit rate                    : 21 b/s
  86. Count of elements           : 114
  87. Stream size                 : 5.48 KiB (0%)
  88. Language                    : Spanish
  89. Default                     : Yes
  90. Forced                      : Yes
RAW Paste Data
We use cookies for various purposes including analytics. By continuing to use Pastebin, you agree to our use of cookies as described in the Cookies Policy. OK, I Understand
Not a member of Pastebin yet?
Sign Up, it unlocks many cool features!
 
Top