Need a unique gift idea?
A Pastebin account makes a great Christmas gift
SHARE
TWEET

Untitled

a guest Oct 11th, 2018 62 Never
Upgrade to PRO!
ENDING IN00days00hours00mins00secs
 
  1. General
  2. Unique ID                                : 310732944822899994938959585452103141853 (0xE9C4FD0228E49141C418F24184E589DD)
  3. Complete name                            : Constantine.City.of.Demons.The.Movie.2018.MULTi.TRUFRENCH.1080p.BluRay.x264-NEO.mkv
  4. Format                                   : Matroska
  5. Format version                           : Version 4 / Version 2
  6. File size                                : 5.56 GiB
  7. Duration                                 : 1 h 30 min
  8. Overall bit rate                         : 8 833 kb/s
  9. Movie name                               : Constantine.City.of.Demons.The.Movie.2018.MULTi.TRUFRENCH.1080p.BluRay.x264-NEO
  10. Encoded date                             : UTC 2018-10-11 18:46:59
  11. Writing application                      : mkvmerge v19.0.0 ('Brave Captain') 64-bit
  12. Writing library                          : libebml v1.3.5 + libmatroska v1.4.8
  13.  
  14. Video
  15. ID                                       : 1
  16. Format                                   : AVC
  17. Format/Info                              : Advanced Video Codec
  18. Format profile                           : High@L4.1
  19. Format settings                          : CABAC / 4 Ref Frames
  20. Format settings, CABAC                   : Yes
  21. Format settings, ReFrames                : 4 frames
  22. Codec ID                                 : V_MPEG4/ISO/AVC
  23. Duration                                 : 1 h 30 min
  24. Bit rate                                 : 6 000 kb/s
  25. Width                                    : 1 920 pixels
  26. Height                                   : 1 080 pixels
  27. Display aspect ratio                     : 16:9
  28. Frame rate mode                          : Constant
  29. Frame rate                               : 23.976 (24000/1001) FPS
  30. Color space                              : YUV
  31. Chroma subsampling                       : 4:2:0
  32. Bit depth                                : 8 bits
  33. Scan type                                : Progressive
  34. Bits/(Pixel*Frame)                       : 0.121
  35. Stream size                              : 3.78 GiB (68%)
  36. Title                                    : ENCODE NEO
  37. Writing library                          : x264 core 152 r2854 e9a5903
  38. Encoding settings                        : cabac=1 / ref=4 / deblock=1:-3:-3 / analyse=0x3:0x133 / me=umh / subme=10 / psy=1 / psy_rd=1,00:10,00 / mixed_ref=1 / me_range=24 / chroma_me=1 / trellis=2 / 8x8dct=1 / cqm=0 / deadzone=21,11 / fast_pskip=1 / chroma_qp_offset=-4 / threads=12 / lookahead_threads=2 / sliced_threads=0 / nr=0 / decimate=1 / interlaced=0 / bluray_compat=0 / constrained_intra=0 / bframes=8 / b_pyramid=2 / b_adapt=2 / b_bias=0 / direct=3 / weightb=1 / open_gop=0 / weightp=2 / keyint=240 / keyint_min=24 / scenecut=40 / intra_refresh=0 / rc_lookahead=60 / rc=2pass / mbtree=1 / bitrate=6000 / ratetol=1,0 / qcomp=0,60 / qpmin=0 / qpmax=69 / qpstep=4 / cplxblur=20,0 / qblur=0,5 / vbv_maxrate=62500 / vbv_bufsize=78125 / nal_hrd=none / filler=0 / ip_ratio=1,40 / aq=1:0,60
  39. Default                                  : Yes
  40. Forced                                   : No
  41. Color range                              : Limited
  42. Color primaries                          : BT.709
  43. Transfer characteristics                 : BT.709
  44. Matrix coefficients                      : BT.709
  45.  
  46. Audio #1
  47. ID                                       : 2
  48. Format                                   : AC-3
  49. Format/Info                              : Audio Coding 3
  50. Codec ID                                 : A_AC3
  51. Duration                                 : 1 h 30 min
  52. Bit rate mode                            : Constant
  53. Bit rate                                 : 640 kb/s
  54. Channel(s)                               : 6 channels
  55. Channel positions                        : Front: L C R, Side: L R, LFE
  56. Sampling rate                            : 48.0 kHz
  57. Frame rate                               : 31.250 FPS (1536 SPF)
  58. Bit depth                                : 16 bits
  59. Compression mode                         : Lossy
  60. Stream size                              : 413 MiB (7%)
  61. Title                                    : VFF AC3 5.1@640 Kbps
  62. Language                                 : French
  63. Service kind                             : Complete Main
  64. Default                                  : Yes
  65. Forced                                   : No
  66.  
  67. Audio #2
  68. ID                                       : 3
  69. Format                                   : DTS
  70. Format/Info                              : Digital Theater Systems
  71. Format profile                           : MA / Core
  72. Codec ID                                 : A_DTS
  73. Duration                                 : 1 h 30 min
  74. Bit rate mode                            : Variable / Constant
  75. Bit rate                                 : 2 190 kb/s / 1 509 kb/s
  76. Channel(s)                               : 6 channels
  77. Channel positions                        : Front: L C R, Side: L R, LFE
  78. Sampling rate                            : 48.0 kHz
  79. Frame rate                               : 93.750 FPS (512 SPF)
  80. Bit depth                                : 24 bits
  81. Compression mode                         : Lossless / Lossy
  82. Stream size                              : 1.38 GiB (25%)
  83. Title                                    : VO DTS HDMA 5.1@2190Kbps
  84. Language                                 : English
  85. Default                                  : No
  86. Forced                                   : No
  87.  
  88. Text #1
  89. ID                                       : 4
  90. Format                                   : UTF-8
  91. Codec ID                                 : S_TEXT/UTF8
  92. Codec ID/Info                            : UTF-8 Plain Text
  93. Duration                                 : 1 h 29 min
  94. Bit rate                                 : 55 b/s
  95. Count of elements                        : 1172
  96. Stream size                              : 36.8 KiB (0%)
  97. Title                                    : Complets
  98. Language                                 : French
  99. Default                                  : No
  100. Forced                                   : No
  101.  
  102. Text #2
  103. ID                                       : 5
  104. Format                                   : UTF-8
  105. Codec ID                                 : S_TEXT/UTF8
  106. Codec ID/Info                            : UTF-8 Plain Text
  107. Duration                                 : 1 h 29 min
  108. Bit rate                                 : 0 b/s
  109. Count of elements                        : 20
  110. Stream size                              : 412 Bytes (0%)
  111. Title                                    : forces
  112. Language                                 : French
  113. Default                                  : Yes
  114. Forced                                   : Yes
  115.  
  116. Menu
  117. 00:00:00.000                             : en:Chapter 1
  118. 00:14:02.716                             : en:Chapter 2
  119. 00:24:02.566                             : en:Chapter 3
  120. 00:34:51.422                             : en:Chapter 4
  121. 00:48:08.844                             : en:Chapter 5
  122. 00:55:09.889                             : en:Chapter 6
  123. 01:03:57.375                             : en:Chapter 7
  124. 01:10:39.109                             : en:Chapter 8
  125. 01:22:02.876                             : en:Chapter 9
  126. 01:27:28.701                             : en:Chapter 10
RAW Paste Data
We use cookies for various purposes including analytics. By continuing to use Pastebin, you agree to our use of cookies as described in the Cookies Policy. OK, I Understand
 
Top