Advertisement
Skilly

Untitled

Dec 20th, 2018
132
0
Never
Not a member of Pastebin yet? Sign Up, it unlocks many cool features!
text 11.41 KB | None | 0 0
  1. General
  2. Unique ID : 302423368410344602218448914089613217471 (0xE3849F42A072CEB53872E94465784EBF)
  3. Complete name : Atomic Blonde (2017) [Remux-2160p-NCmt].mkv
  4. Format : Matroska
  5. Format version : Version 4 / Version 2
  6. File size : 41.1 GiB
  7. Duration : 1h 54mn
  8. Overall bit rate : 51.2 Mbps
  9. Movie name : Atomic.Blonde.2017.UHD.BluRay.Remux.2160p.HEVC.HDR.DTS.X.7.1-NCmt
  10. Encoded date : UTC 2017-12-12 19:39:59
  11. Writing application : mkvmerge v18.0.0 ('Apricity') 64-bit
  12. Writing library : libebml v1.3.5 + libmatroska v1.4.8
  13.  
  14. Video
  15. ID : 1
  16. Format : HEVC
  17. Format/Info : High Efficiency Video Coding
  18. Format profile : Main 10@L5.1@High
  19. Codec ID : V_MPEGH/ISO/HEVC
  20. Duration : 1h 54mn
  21. Bit rate : 46.3 Mbps
  22. Width : 3 840 pixels
  23. Height : 2 160 pixels
  24. Display aspect ratio : 16:9
  25. Frame rate mode : Constant
  26. Frame rate : 23.976 (24000/1001) fps
  27. Color space : YUV
  28. Chroma subsampling : 4:2:0
  29. Bit depth : 10 bits
  30. Bits/(Pixel*Frame) : 0.233
  31. Stream size : 37.1 GiB (90%)
  32. Title : MPEG-H HEVC Video / 46302 kbps / 2160p / 23.976 fps / 16:9 / Main 10 Profile 5.1 High / 4:2:0 / 10 bits / HDR / BT.2020
  33. Default : Yes
  34. Forced : No
  35. Color range : Limited
  36. Color primaries : BT.2020
  37. Matrix coefficients : BT.2020 non-constant
  38.  
  39. Audio #1
  40. ID : 2
  41. Format : DTS
  42. Format/Info : Digital Theater Systems
  43. Format profile : X / MA / Core
  44. Mode : 16
  45. Format settings, Endianness : Big
  46. Codec ID : A_DTS
  47. Duration : 1h 54mn
  48. Bit rate mode : Variable / Variable / Constant
  49. Bit rate : 4 671 Kbps / 4 671 Kbps / 1 509 Kbps
  50. Channel(s) : Object Based / 8 channels / 6 channels
  51. Channel positions : Object Based / Front: L C R, Side: L R, Back: L R, LFE / Front: L C R, Side: L R, LFE
  52. Sampling rate : / 48.0 KHz / 48.0 KHz
  53. Frame rate : 93.750 fps (512 spf)
  54. Bit depth : / 24 bits / 24 bits
  55. Compression mode : / Lossless / Lossy
  56. Stream size : 3.74 GiB (9%)
  57. Title : DTS:X/DTS-HD Master Audio / 7.1-X / 48 kHz / 4671 kbps / 24-bit
  58. Language : English
  59. Default : Yes
  60. Forced : No
  61.  
  62. Audio #2
  63. ID : 3
  64. Format : AC-3
  65. Format/Info : Audio Coding 3
  66. Format profile : Dolby Digital
  67. Mode extension : CM (complete main)
  68. Format settings, Endianness : Big
  69. Codec ID : A_AC3
  70. Duration : 1h 54mn
  71. Bit rate mode : Constant
  72. Bit rate : 192 Kbps
  73. Channel(s) : 2 channels
  74. Channel positions : Front: L R
  75. Sampling rate : 48.0 KHz
  76. Frame rate : 31.250 fps (1536 spf)
  77. Compression mode : Lossy
  78. Stream size : 158 MiB (0%)
  79. Title : Commentary by Director David Leitch and Editor Elisabet Ronaldsdottir / Dolby Digital Audio / 2.0 / 48 kHz / 192 kbps / Dolby Surround
  80. Language : English
  81. Default : No
  82. Forced : No
  83.  
  84. Text #1
  85. ID : 4
  86. Format : PGS
  87. Muxing mode : zlib
  88. Codec ID : S_HDMV/PGS
  89. Codec ID/Info : Picture based subtitle format used on BDs/HD-DVDs
  90. Duration : 1h 47mn
  91. Bit rate : 31.5 Kbps
  92. Count of elements : 2411
  93. Stream size : 24.3 MiB (0%)
  94. Title : SDH
  95. Language : English
  96. Default : No
  97. Forced : No
  98.  
  99. Text #2
  100. ID : 5
  101. Format : PGS
  102. Muxing mode : zlib
  103. Codec ID : S_HDMV/PGS
  104. Codec ID/Info : Picture based subtitle format used on BDs/HD-DVDs
  105. Duration : 1h 53mn
  106. Bit rate : 21.0 Kbps
  107. Count of elements : 1510
  108. Stream size : 17.2 MiB (0%)
  109. Language : Dutch
  110. Default : No
  111. Forced : No
  112.  
  113. Text #3
  114. ID : 6
  115. Format : PGS
  116. Muxing mode : zlib
  117. Codec ID : S_HDMV/PGS
  118. Codec ID/Info : Picture based subtitle format used on BDs/HD-DVDs
  119. Duration : 1h 53mn
  120. Bit rate : 21.2 Kbps
  121. Count of elements : 1882
  122. Stream size : 17.2 MiB (0%)
  123. Language : French
  124. Default : No
  125. Forced : No
  126.  
  127. Text #4
  128. ID : 7
  129. Format : PGS
  130. Muxing mode : zlib
  131. Codec ID : S_HDMV/PGS
  132. Codec ID/Info : Picture based subtitle format used on BDs/HD-DVDs
  133. Duration : 1h 53mn
  134. Bit rate : 24.2 Kbps
  135. Count of elements : 1959
  136. Stream size : 19.8 MiB (0%)
  137. Title : Canadian
  138. Language : French
  139. Default : No
  140. Forced : No
  141.  
  142. Text #5
  143. ID : 8
  144. Format : PGS
  145. Muxing mode : zlib
  146. Codec ID : S_HDMV/PGS
  147. Codec ID/Info : Picture based subtitle format used on BDs/HD-DVDs
  148. Duration : 1h 53mn
  149. Bit rate : 23.8 Kbps
  150. Count of elements : 1860
  151. Stream size : 19.4 MiB (0%)
  152. Title : Brazilian
  153. Language : Portuguese
  154. Default : No
  155. Forced : No
  156.  
  157. Text #6
  158. ID : 9
  159. Format : PGS
  160. Muxing mode : zlib
  161. Codec ID : S_HDMV/PGS
  162. Codec ID/Info : Picture based subtitle format used on BDs/HD-DVDs
  163. Duration : 1h 53mn
  164. Bit rate : 23.3 Kbps
  165. Count of elements : 1856
  166. Stream size : 19.0 MiB (0%)
  167. Title : Latin American
  168. Language : Spanish
  169. Default : No
  170. Forced : No
  171.  
  172. Text #7
  173. ID : 10
  174. Format : PGS
  175. Muxing mode : zlib
  176. Codec ID : S_HDMV/PGS
  177. Codec ID/Info : Picture based subtitle format used on BDs/HD-DVDs
  178. Duration : 1h 54mn
  179. Bit rate : 58.6 Kbps
  180. Count of elements : 3706
  181. Stream size : 47.9 MiB (0%)
  182. Title : Commentary by Director David Leitch and Editor Elisabet Ronaldsdottir
  183. Language : English
  184. Default : No
  185. Forced : No
  186.  
  187. Text #8
  188. ID : 11
  189. Format : PGS
  190. Muxing mode : zlib
  191. Codec ID : S_HDMV/PGS
  192. Codec ID/Info : Picture based subtitle format used on BDs/HD-DVDs
  193. Duration : 1h 54mn
  194. Bit rate : 53.8 Kbps
  195. Count of elements : 3744
  196. Stream size : 44.1 MiB (0%)
  197. Title : Commentary by Director David Leitch and Editor Elisabet Ronaldsdottir
  198. Language : French
  199. Default : No
  200. Forced : No
  201.  
  202. Menu
  203. 00:00:00.000 : en:Chapter 1
  204. 00:06:48.991 : en:Chapter 2
  205. 00:11:04.163 : en:Chapter 3
  206. 00:18:18.222 : en:Chapter 4
  207. 00:24:16.580 : en:Chapter 5
  208. 00:27:48.166 : en:Chapter 6
  209. 00:32:51.010 : en:Chapter 7
  210. 00:36:21.095 : en:Chapter 8
  211. 00:40:47.153 : en:Chapter 9
  212. 00:47:56.665 : en:Chapter 10
  213. 00:53:14.482 : en:Chapter 11
  214. 00:59:55.091 : en:Chapter 12
  215. 01:03:33.768 : en:Chapter 13
  216. 01:08:04.789 : en:Chapter 14
  217. 01:10:53.415 : en:Chapter 15
  218. 01:18:28.453 : en:Chapter 16
  219. 01:24:29.272 : en:Chapter 17
  220. 01:32:45.268 : en:Chapter 18
  221. 01:42:07.246 : en:Chapter 19
  222. 01:48:22.078 : en:Chapter 20
Advertisement
Add Comment
Please, Sign In to add comment
Advertisement