SHARE
TWEET

Media Info

a guest Feb 13th, 2020 234 Never
Not a member of Pastebin yet? Sign Up, it unlocks many cool features!
  1. Format                      : Matroska
  2. Format version              : Version 4
  3. File size                   : 888 MiB
  4. Duration                    : 2 h 3 min
  5. Overall bit rate mode       : Variable
  6. Overall bit rate            : 1 007 kb/s
  7. Movie name                  : Visit: MkvHub.Com
  8. Encoded date                : UTC 2020-02-13 16:58:54
  9. Writing application         : mkvmerge v10.0.0 ('To Drown In You') 64bit
  10. Writing library             : libebml v1.3.4 + libmatroska v1.4.5
  11.  
  12. Video
  13. ID                          : 1
  14. Format                      : AVC
  15. Format/Info                 : Advanced Video Codec
  16. Format profile              : High@L3.1
  17. Format settings             : CABAC / 4 Ref Frames
  18. Format settings, CABAC      : Yes
  19. Format settings, Reference  : 4 frames
  20. Codec ID                    : V_MPEG4/ISO/AVC
  21. Duration                    : 2 h 3 min
  22. Bit rate                    : 826 kb/s
  23. Width                       : 1 280 pixels
  24. Height                      : 536 pixels
  25. Display aspect ratio        : 2.40:1
  26. Frame rate mode             : Constant
  27. Frame rate                  : 29.970 (30000/1001) FPS
  28. Color space                 : YUV
  29. Chroma subsampling          : 4:2:0
  30. Bit depth                   : 8 bits
  31. Scan type                   : Progressive
  32. Bits/(Pixel*Frame)          : 0.040
  33. Stream size                 : 727 MiB (82%)
  34. Title                       : MkvHub.Com
  35. Writing library             : x264 core 157 r2935 545de2f
  36. Encoding settings           : cabac=1 / ref=1 / deblock=1:0:0 / analyse=0x3:0x113 / me=hex / subme=2 / psy=1 / psy_rd=1.00:0.00 / mixed_ref=0 / me_range=16 / chroma_me=1 / trellis=0 / 8x8dct=1 / cqm=0 / deadzone=21,11 / fast_pskip=1 / chroma_qp_offset=0 / threads=17 / lookahead_threads=4 / sliced_threads=0 / nr=0 / decimate=1 / interlaced=0 / bluray_compat=0 / constrained_intra=0 / bframes=3 / b_pyramid=2 / b_adapt=1 / b_bias=0 / direct=1 / weightb=1 / open_gop=0 / weightp=1 / keyint=300 / keyint_min=29 / scenecut=40 / intra_refresh=0 / rc_lookahead=10 / rc=abr / mbtree=1 / bitrate=826 / ratetol=1.0 / qcomp=0.60 / qpmin=0 / qpmax=69 / qpstep=4 / ip_ratio=1.40 / aq=1:1.00
  37. Language                    : English
  38. Default                     : Yes
  39. Forced                      : No
  40.  
  41. Audio #1
  42. ID                          : 2
  43. Format                      : MPEG Audio
  44. Format version              : Version 1
  45. Format profile              : Layer 3
  46. Format settings             : Joint stereo / MS Stereo
  47. Codec ID                    : A_MPEG/L3
  48. Codec ID/Hint               : MP3
  49. Duration                    : 2 h 3 min
  50. Bit rate mode               : Variable
  51. Bit rate                    : 89.4 kb/s
  52. Nominal bit rate            : 96.0 kb/s
  53. Channel(s)                  : 2 channels
  54. Sampling rate               : 48.0 kHz
  55. Frame rate                  : 41.667 FPS (1152 SPF)
  56. Compression mode            : Lossy
  57. Stream size                 : 78.8 MiB (9%)
  58. Title                       : MkvHub.Com
  59. Writing library             : LAME3.99r
  60. Encoding settings           : -m j -V 4 -q 3 -lowpass 15.1 --abr 96
  61. Language                    : Hindi
  62. Default                     : Yes
  63. Forced                      : Yes
  64.  
  65. Audio #2
  66. ID                          : 3
  67. Format                      : MPEG Audio
  68. Format version              : Version 2
  69. Format profile              : Layer 3
  70. Format settings             : Joint stereo / MS Stereo
  71. Codec ID                    : A_MPEG/L3
  72. Codec ID/Hint               : MP3
  73. Duration                    : 2 h 3 min
  74. Bit rate mode               : Variable
  75. Bit rate                    : 90.1 kb/s
  76. Nominal bit rate            : 96.0 kb/s
  77. Channel(s)                  : 2 channels
  78. Sampling rate               : 16.0 kHz
  79. Frame rate                  : 27.778 FPS (576 SPF)
  80. Compression mode            : Lossy
  81. Stream size                 : 79.4 MiB (9%)
  82. Title                       : MkvHub.Com
  83. Writing library             : LAME3.99r
  84. Encoding settings           : -m j -V 4 -q 3 -lowpass 8 --abr 96
  85. Language                    : English
  86. Default                     : No
  87. Forced                      : No
  88.  
  89. Text
  90. ID                          : 4
  91. Format                      : UTF-8
  92. Codec ID                    : S_TEXT/UTF8
  93. Codec ID/Info               : UTF-8 Plain Text
  94. Duration                    : 1 h 0 min
  95. Bit rate                    : 0 b/s
  96. Count of elements           : 2
  97. Stream size                 : 118 Bytes (0%)
  98. Default                     : Yes
  99. Forced                      : Yes
RAW Paste Data
We use cookies for various purposes including analytics. By continuing to use Pastebin, you agree to our use of cookies as described in the Cookies Policy. OK, I Understand
Top