Guest User

[Kaitou]_Sekai_no_Yami_Zukan_-_ 03_[720p][10bit][2B6B89FA]

a guest
May 24th, 2017
77
Never
Not a member of Pastebin yet? Sign Up, it unlocks many cool features!
  1. General
  2. Format : Matroska
  3. Format version : Version 4 / Version 2
  4. File size : 212 MiB
  5. Duration : 4 min 30 s
  6. Overall bit rate : 6 573 kb/s
  7. Encoded date : UTC 2017-04-23 09:16:29
  8. Writing application : mkvmerge v9.5.0 ('Quiet Fire') 64bit
  9. Writing library : libebml v1.3.4 + libmatroska v1.4.5
  10. Attachments : kokila.ttf / Lato_1.ttf / Lato-BoldItalic_0.ttf / OLDENGL.TTF / Wil2ghbd.ttf
  11.  
  12. Video
  13. ID : 1
  14. Format : AVC
  15. Format/Info : Advanced Video Codec
  16. Format profile : High 10@L5
  17. Format settings, CABAC : Yes
  18. Format settings, ReFrames : 16 frames
  19. Codec ID : V_MPEG4/ISO/AVC
  20. Duration : 4 min 30 s
  21. Bit rate : 6 299 kb/s
  22. Width : 1 280 pixels
  23. Height : 720 pixels
  24. Display aspect ratio : 16:9
  25. Frame rate mode : Constant
  26. Frame rate : 29.970 (30000/1001) FPS
  27. Color space : YUV
  28. Chroma subsampling : 4:2:0
  29. Bit depth : 10 bits
  30. Scan type : Progressive
  31. Bits/(Pixel*Frame) : 0.228
  32. Stream size : 203 MiB (96%)
  33. Title : [Kaitou] The Dark Picture Book of the World - 03 [TX 720p 10bit]
  34. Writing library : x264 core 142 r2431+42 c69a006 tMod [10-bit@all X86_64]
  35. Encoding settings : cabac=1 / ref=16 / deblock=1:0:0 / analyse=0x3:0x133 / me=umh / subme=10 / psy=1 / fade_compensate=0.75 / psy_rd=0.70:0.10 / mixed_ref=1 / me_range=32 / chroma_me=1 / trellis=2 / 8x8dct=1 / cqm=0 / deadzone=21,11 / fast_pskip=1 / chroma_qp_offset=-2 / threads=18 / lookahead_threads=4 / sliced_threads=0 / nr=0 / decimate=1 / interlaced=0 / bluray_compat=0 / constrained_intra=0 / fgo=0 / bframes=16 / b_pyramid=2 / b_adapt=2 / b_bias=0 / direct=3 / weightb=1 / open_gop=0 / weightp=2 / keyint=240 / keyint_min=23 / scenecut=40 / intra_refresh=0 / rc_lookahead=60 / rc=crf / mbtree=1 / crf=18.5000 / qcomp=0.60 / qpmin=0:0:0 / qpmax=81:81:81 / qpstep=4 / ip_ratio=1.40 / aq=3:0.80 / aq-sensitivity=10.00 / aq-factor=1.00:1.00:1.00 / aq2=0 / aq3=0
  36. Language : Japanese
  37. Default : Yes
  38. Forced : No
  39. Color range : Limited
  40. Color primaries : BT.709
  41. Transfer characteristics : BT.709
  42. Matrix coefficients : BT.709
  43.  
  44. Audio
  45. ID : 2
  46. Format : AAC
  47. Format/Info : Advanced Audio Codec
  48. Format profile : LC
  49. Codec ID : A_AAC
  50. Duration : 4 min 29 s
  51. Bit rate : 252 kb/s
  52. Channel(s) : 2 channels
  53. Channel positions : Front: L R
  54. Sampling rate : 48.0 kHz
  55. Frame rate : 46.875 FPS (1024 spf)
  56. Compression mode : Lossy
  57. Stream size : 8.12 MiB (4%)
  58. Title : [Kaitou] The Dark Picture Book of the World - 03
  59. Language : Japanese
  60. Default : Yes
  61. Forced : No
  62.  
  63. Text
  64. ID : 3
  65. Format : ASS
  66. Codec ID : S_TEXT/ASS
  67. Codec ID/Info : Advanced Sub Station Alpha
  68. Duration : 4 min 15 s
  69. Bit rate : 1 438 b/s
  70. Count of elements : 337
  71. Compression mode : Lossless
  72. Stream size : 44.8 KiB (0%)
  73. Title : [Kaitou] The Dark Picture Book of the World - 03 (The Reaper Racing Across the Plain)
  74. Language : English
  75. Default : Yes
  76. Forced : No
  77.  
  78. Menu
  79. 00:00:00.000 : en:Introduction
  80. 00:00:30.063 : en:The Reaper Racing Across the Plain
  81. 00:03:59.973 : en:"me to me" by Mono no Aware
RAW Paste Data