zgurvas

Untitled

Apr 16th, 2019
505
Never
Not a member of Pastebin yet? Sign Up, it unlocks many cool features!
  1. Полное имя : D:\RELEASE\Game.of.Thrones.S08.1080p.WEB-DL.2xRus.Eng.EniaHD\Game.of.Thrones.S08E01.Winterfell.1080p.WEB-DL.2xRus.Eng.EniaHD.mkv
  2. Формат : Matroska
  3. Версия формата : Version 4
  4. Размер файла : 3,14 Гбайт
  5. Продолжительность : 55 м. 47 с.
  6. Общий поток : 8068 Кбит/сек
  7. Название фильма : Винтерфелл / Winterfell
  8. Трек/Положение : 1
  9. Трек/Всего : 6
  10. Описание : Arriving at Winterfell, Jon and Daenerys struggle to unite a divided North. Jon gets some big news.
  11. Дата выпуска : UTC 2019-04-14 21:00:00
  12. Дата кодирования : UTC 2019-04-16 15:32:16
  13. Программа кодирования : mkvmerge v32.0.0 ('Astral Progressions') 32-bit
  14. Библиотека кодирования : libebml v1.3.7 + libmatroska v1.5.0
  15. Авторское право : EniaHD
  16. Attachments : poster.Game.of.Thrones.jpg
  17.  
  18. Видео
  19. Идентификатор : 1
  20. Формат : AVC
  21. Формат/Информация : Advanced Video Codec
  22. Профиль формата : High@L4
  23. Настройки формата : CABAC / 4 Ref Frames
  24. Параметр CABAC формата : Да
  25. Параметр RefFrames формата : 4 кадра
  26. Идентификатор кодека : V_MPEG4/ISO/AVC
  27. Продолжительность : 55 м. 45 с.
  28. Вид битрейта : Постоянный
  29. Битрейт : 6596 Кбит/сек
  30. Номинальный битрейт : 10000 Кбит/сек
  31. Ширина : 1920 пикселей
  32. Высота : 1080 пикселей
  33. Соотношение сторон : 16:9
  34. Режим частоты кадров : Постоянный
  35. Частота кадров : 23,976 (24000/1001) кадра/сек
  36. Цветовое пространство : YUV
  37. Субдискретизация насыщенности : 4:2:0
  38. Битовая глубина : 8 бит
  39. Тип развёртки : Прогрессивная
  40. Бит/(Пиксели*Кадры) : 0.133
  41. Размер потока : 2,57 Гбайт (82%)
  42. Заголовок : Game.of.Thrones.S08E01.Winterfell.1080p.WEB-DL.Rus.Eng.EniaHD
  43. Язык : English
  44. Default : Да
  45. Forced : Нет
  46. Цветовой диапазон : Limited
  47. Основные цвета : BT.709
  48. Характеристики трансфера : BT.709
  49. Коэффициенты матрицы : BT.709
  50.  
  51. Аудио #1
  52. Идентификатор : 2
  53. Формат : AC-3
  54. Формат/Информация : Audio Coding 3
  55. Коммерческое название : Dolby Digital
  56. Идентификатор кодека : A_AC3
  57. Продолжительность : 55 м. 45 с.
  58. Вид битрейта : Постоянный
  59. Битрейт : 640 Кбит/сек
  60. Каналы : 6 каналов
  61. Channel layout : L R C LFE Ls Rs
  62. Частота : 48,0 КГц
  63. Частота кадров : 31,250 кадров/сек (1536 SPF)
  64. Битовая глубина : 16 бит
  65. Метод сжатия : С потерями
  66. Размер потока : 255 Мбайт (8%)
  67. Заголовок : AC3 5.1 @ 640 kbps - MVO, Novamedia
  68. Язык : Russian
  69. ServiceKind/String : Complete Main
  70. Default : Да
  71. Forced : Нет
  72.  
  73. Аудио #2
  74. Идентификатор : 3
  75. Формат : AC-3
  76. Формат/Информация : Audio Coding 3
  77. Коммерческое название : Dolby Digital
  78. Идентификатор кодека : A_AC3
  79. Продолжительность : 55 м. 45 с.
  80. Вид битрейта : Постоянный
  81. Битрейт : 192 Кбит/сек
  82. Каналы : 2 канала
  83. Channel layout : L R
  84. Частота : 48,0 КГц
  85. Частота кадров : 31,250 кадров/сек (1536 SPF)
  86. Битовая глубина : 16 бит
  87. Метод сжатия : С потерями
  88. Размер потока : 76,6 Мбайт (2%)
  89. Заголовок : AC3 2.0 @ 192 kbps - MVO, Нота
  90. Язык : Russian
  91. ServiceKind/String : Complete Main
  92. Default : Нет
  93. Forced : Нет
  94.  
  95. Аудио #3
  96. Идентификатор : 4
  97. Формат : E-AC-3
  98. Формат/Информация : Enhanced AC-3
  99. Коммерческое название : Dolby Digital Plus
  100. Идентификатор кодека : A_EAC3
  101. Продолжительность : 55 м. 45 с.
  102. Вид битрейта : Постоянный
  103. Битрейт : 640 Кбит/сек
  104. Каналы : 6 каналов
  105. Channel layout : L R C LFE Ls Rs
  106. Частота : 48,0 КГц
  107. Частота кадров : 31,250 кадров/сек (1536 SPF)
  108. Метод сжатия : С потерями
  109. Задержка видео : 8 мс.
  110. Размер потока : 255 Мбайт (8%)
  111. Заголовок : E-AC3 5.1 @ 640 kbps - Original
  112. Язык : English
  113. ServiceKind/String : Complete Main
  114. Default : Нет
  115. Forced : Нет
  116.  
  117. Текст #1
  118. Идентификатор : 5
  119. Формат : UTF-8
  120. Идентификатор кодека : S_TEXT/UTF8
  121. Идентификатор кодека/Информация : UTF-8 Plain Text
  122. Продолжительность : 32 м. 10 с.
  123. Битрейт : 7 бит/сек
  124. ElementCount : 28
  125. Размер потока : 1,70 Кбайт (0%)
  126. Заголовок : Forced
  127. Язык : Russian
  128. Default : Да
  129. Forced : Да
  130.  
  131. Текст #2
  132. Идентификатор : 6
  133. Формат : UTF-8
  134. Идентификатор кодека : S_TEXT/UTF8
  135. Идентификатор кодека/Информация : UTF-8 Plain Text
  136. Продолжительность : 52 м. 45 с.
  137. Битрейт : 57 бит/сек
  138. ElementCount : 461
  139. Размер потока : 22,2 Кбайт (0%)
  140. Заголовок : Full
  141. Язык : Russian
  142. Default : Нет
  143. Forced : Нет
  144.  
  145. Текст #3
  146. Идентификатор : 7
  147. Формат : UTF-8
  148. Идентификатор кодека : S_TEXT/UTF8
  149. Идентификатор кодека/Информация : UTF-8 Plain Text
  150. Продолжительность : 55 м. 41 с.
  151. Битрейт : 45 бит/сек
  152. ElementCount : 665
  153. Размер потока : 18,4 Кбайт (0%)
  154. Заголовок : Full SDH
  155. Язык : English
  156. Default : Нет
  157. Forced : Нет
  158.  
  159. Меню
  160. 00:00:00.000 : en:Ratings
  161. 00:00:03.944 : en:Previously On
  162. 00:01:59.944 : en:Studio Logo
  163. 00:02:05.944 : en:Opening Credits
  164. 00:03:52.944 : en:Arrival in Winterfell
  165. 00:09:46.944 : en:Fight together or die
  166. 00:12:53.944 : en:Sansa sees through the lies
  167. 00:15:36.944 : en:A tearful reunion
  168. 00:17:45.944 : en:A queen must be earned
  169. 00:22:40.944 : en:Cersei asks a favor of Bronn
  170. 00:25:25.944 : en:What is dead may never die
  171. 00:29:24.944 : en:Hold on to whatever you can
  172. 00:36:41.944 : en:A forge for dragonglass
  173. 00:39:11.944 : en:Sansa is frustrated with Jon's choice
  174. 00:41:03.944 : en:The head of House Tarly
  175. 00:44:32.944 : en:It's time for Jon to know the truth
  176. 00:48:40.944 : en:A message from the Night King
  177. 00:52:28.944 : en:An unexpected visitor
  178. 00:53:43.944 : en:End Credits
  179. 00:55:03.944 : en:Next Time
  180. 00:55:40.944 : en:Inside Game of Thrones
RAW Paste Data