Advertisement
DAKUBABU

Untitled

Jan 10th, 2022
61
0
Never
Not a member of Pastebin yet? Sign Up, it unlocks many cool features!
text 4.46 KB | None | 0 0
  1. General
  2. Unique ID : 209120852381975128951847548888375555133 (0x9D53360E91F576B4B8D56195D0E2F43D)
  3. Complete name : F:\C85C11-2021-720p-Hin-975MB.mkv
  4. Format : Matroska
  5. Format version : Version 4
  6. File size : 973 MiB
  7. Duration : 2 h 7 min
  8. Overall bit rate : 1 066 kb/s
  9. Movie name : BollyMovies.Info | Check (2021) 720p WEB-DL x264 HE-AAC Hindi Dubbed 975MB
  10. Encoded date : UTC 2022-01-10 05:49:34
  11. Writing application : mkvmerge v47.0.0 ('Black Flag') 64-bit
  12. Writing library : libebml v1.3.10 + libmatroska v1.5.2
  13.  
  14. Video
  15. ID : 1
  16. Format : AVC
  17. Format/Info : Advanced Video Codec
  18. Format profile : High@L5
  19. Format settings : CABAC / 16 Ref Frames
  20. Format settings, CABAC : Yes
  21. Format settings, Reference frames : 16 frames
  22. Codec ID : V_MPEG4/ISO/AVC
  23. Duration : 2 h 7 min
  24. Bit rate : 1 000 kb/s
  25. Width : 1 280 pixels
  26. Height : 548 pixels
  27. Display aspect ratio : 2.35:1
  28. Original display aspect ratio : 2.35:1
  29. Frame rate mode : Constant
  30. Frame rate : 25.000 FPS
  31. Color space : YUV
  32. Chroma subsampling : 4:2:0
  33. Bit depth : 8 bits
  34. Scan type : Progressive
  35. Bits/(Pixel*Frame) : 0.057
  36. Stream size : 913 MiB (94%)
  37. Title : BollyMovies.Info
  38. Writing library : x264 core 164 r3065+9 7a0e6e8 [Mod by Patman]
  39. Encoding settings : cabac=1 / ref=16 / deblock=1:0:0 / analyse=0x3:0x133 / me=umh / subme=10 / psy=1 / psy_rd=1.00:0.00 / mixed_ref=1 / me_range=24 / chroma_me=1 / trellis=2 / 8x8dct=1 / cqm=0 / deadzone=21,11 / fast_pskip=1 / chroma_qp_offset=-2 / threads=17 / lookahead_threads=2 / sliced_threads=0 / nr=0 / decimate=1 / interlaced=0 / bluray_compat=0 / constrained_intra=0 / bframes=8 / b_pyramid=2 / b_adapt=2 / b_bias=0 / direct=3 / weightb=1 / open_gop=0 / weightp=2 / keyint=250 / keyint_min=25 / scenecut=40 / intra_refresh=0 / rc_lookahead=60 / rc=2pass / mbtree=1 / bitrate=1000 / ratetol=1.0 / qcomp=0.60 / qpmin=0 / qpmax=69 / qpstep=4 / cplxblur=20.0 / qblur=0.5 / ip_ratio=1.40 / aq=1:1.00
  40. Language : Hindi
  41. Default : Yes
  42. Forced : Yes
  43.  
  44. Audio
  45. ID : 2
  46. Format : AAC LC
  47. Format/Info : Advanced Audio Codec Low Complexity
  48. Codec ID : A_AAC-2
  49. Duration : 2 h 7 min
  50. Bit rate : 64.0 kb/s
  51. Channel(s) : 2 channels
  52. Channel layout : L R
  53. Sampling rate : 48.0 kHz
  54. Frame rate : 46.875 FPS (1024 SPF)
  55. Compression mode : Lossy
  56. Stream size : 58.4 MiB (6%)
  57. Title : BollyMovies.Info
  58. Language : Hindi
  59. Default : Yes
  60. Forced : Yes
  61.  
  62. Text
  63. ID : 3
  64. Format : UTF-8
  65. Codec ID : S_TEXT/UTF8
  66. Codec ID/Info : UTF-8 Plain Text
  67. Duration : 10 s 0 ms
  68. Bit rate : 252 b/s
  69. Count of elements : 4
  70. Stream size : 316 Bytes (0%)
  71. Title : BollyMovies.Info
  72. Language : Hindi
  73. Default : Yes
  74. Forced : Yes
  75.  
  76.  
Advertisement
Add Comment
Please, Sign In to add comment
Advertisement