Guest User

[bonkai77] Spice & Wolf S01E01

a guest
Dec 2nd, 2017
379
Never
Not a member of Pastebin yet? Sign Up, it unlocks many cool features!
  1. General
  2. Unique ID : 183742917698775025303691185413287608245 (0x8A3B99462411468FB122A164BCEC7FB5)
  3. Complete name : Spice and Wolf - 01 - Wolf and Best Clothes [DUAL-AUDIO] [x265] [10bit].mkv
  4. Format : Matroska
  5. Format version : Version 4 / Version 2
  6. File size : 254 MiB
  7. Duration : 23 min 58 s
  8. Overall bit rate : 1 480 kb/s
  9. Encoded date : UTC 2016-07-14 21:25:09
  10. Writing application : mkvmerge v9.1.0 ('Little Earthquakes') 64bit
  11. Writing library : libebml v1.3.3 + libmatroska v1.4.4
  12. Attachments : 0.01G.dummy
  13.  
  14. Video
  15. ID : 1
  16. Format : HEVC
  17. Format/Info : High Efficiency Video Coding
  18. Format profile : Main 10@L5@Main
  19. Codec ID : V_MPEGH/ISO/HEVC
  20. Duration : 23 min 58 s
  21. Bit rate : 1 141 kb/s
  22. Width : 1 920 pixels
  23. Height : 1 080 pixels
  24. Display aspect ratio : 16:9
  25. Frame rate mode : Constant
  26. Frame rate : 23.976 (24000/1001) FPS
  27. Color space : YUV
  28. Chroma subsampling : 4:2:0
  29. Bit depth : 10 bits
  30. Bits/(Pixel*Frame) : 0.023
  31. Stream size : 196 MiB (77%)
  32. Title : [bonkai77]
  33. Writing library : x265 1.9+227-836a870ba76b46d4:[Windows][GCC 5.4.0][64 bit] 10bit: KG7x [x265.ru]
  34. Encoding settings : wpp / ctu=64 / min-cu-size=8 / max-tu-size=32 / tu-intra-depth=2 / tu-inter-depth=2 / me=3 / subme=5 / merange=57 / rect / amp / max-merge=3 / temporal-mvp / no-early-skip / rskip / rdpenalty=0 / no-tskip / no-tskip-fast / no-strong-intra-smoothing / no-lossless / no-cu-lossless / no-constrained-intra / no-fast-intra / open-gop / no-temporal-layers / interlace=0 / keyint=250 / min-keyint=23 / scenecut=40 / rc-lookahead=25 / lookahead-slices=4 / bframes=8 / bframe-bias=0 / b-adapt=2 / ref=6 / limit-refs=2 / limit-modes / weightp / weightb / aq-mode=1 / qg-size=32 / aq-strength=1.00 / cbqpoffs=0 / crqpoffs=0 / rd=4 / psy-rd=2.00 / rdoq-level=2 / psy-rdoq=1.00 / no-rd-refine / signhide / deblock=0:0 / sao / no-sao-non-deblock / b-pyramid / cutree / no-intra-refresh / rc=crf / crf=22.0 / qcomp=0.60 / qpmin=0 / qpmax=51 / qpstep=4 / ipratio=1.40 / pbratio=1.30
  35. Default : Yes
  36. Forced : No
  37.  
  38. Audio #1
  39. ID : 2
  40. Format : AAC
  41. Format/Info : Advanced Audio Codec
  42. Format profile : HE-AAC / LC
  43. Format settings : Explicit
  44. Codec ID : A_AAC-2
  45. Duration : 23 min 58 s
  46. Bit rate : 201 kb/s
  47. Channel(s) : 6 channels
  48. Channel positions : Front: L C R, Side: L R, LFE
  49. Sampling rate : 48.0 kHz / 24.0 kHz
  50. Frame rate : 23.438 FPS (1024 SPF)
  51. Compression mode : Lossy
  52. Delay relative to video : 40 ms
  53. Stream size : 34.5 MiB (14%)
  54. Language : English
  55. Default : Yes
  56. Forced : No
  57.  
  58. Audio #2
  59. ID : 4
  60. Format : AAC
  61. Format/Info : Advanced Audio Codec
  62. Format profile : HE-AAC / LC
  63. Format settings : Explicit
  64. Codec ID : A_AAC-2
  65. Duration : 23 min 45 s
  66. Bit rate : 64.0 kb/s
  67. Channel(s) : 2 channels
  68. Channel positions : Front: L R
  69. Sampling rate : 48.0 kHz / 24.0 kHz
  70. Frame rate : 23.438 FPS (1024 SPF)
  71. Compression mode : Lossy
  72. Delay relative to video : 6 s 903 ms
  73. Stream size : 10.9 MiB (4%)
  74. Language : Japanese
  75. Default : No
  76. Forced : No
  77.  
  78. Text
  79. ID : 3
  80. Format : VobSub
  81. Muxing mode : zlib
  82. Codec ID : S_VOBSUB
  83. Codec ID/Info : Picture based subtitle format used on DVDs
  84. Duration : 23 min 49 s
  85. Bit rate : 12.6 kb/s
  86. Count of elements : 461
  87. Stream size : 2.15 MiB (1%)
  88. Title : English Subs
  89. Language : English
  90. Default : No
  91. Forced : No
  92.  
  93. Menu
  94. 00:00:00.097 : en:00:00:00.097
RAW Paste Data