Guest User

Untitled

a guest
Apr 4th, 2021
18
Never
Not a member of Pastebin yet? Sign Up, it unlocks many cool features!
  1. [07:34:57] hb_init: starting libhb thread
  2. [07:34:57] CPU: Intel(R) Core(TM) i7-6700K CPU @ 4.00GHz
  3. [07:34:57] - logical processor count: 8
  4. [07:34:57] OpenCL device #1: Intel(R) Corporation Intel(R) HD Graphics 530
  5. [07:34:57] - OpenCL version: 2.1 NEO
  6. [07:34:57] - driver version: 26.20.100.8142
  7. [07:34:57] - device type: GPU
  8. [07:34:57] - supported: YES
  9. [07:34:57] OpenCL device #2: NVIDIA Corporation GeForce GTX 970
  10. [07:34:57] - OpenCL version: 1.2 CUDA
  11. [07:34:57] - driver version: 391.25
  12. [07:34:57] - device type: GPU
  13. [07:34:57] - supported: no
  14. [07:34:57] Intel Quick Sync Video support: no
  15. [07:34:57] hb_scan: path=C:\Users\guthrie\Desktop\NewVideo\Sony 4K Demo Another World.mp4, title_index=0
  16. libbluray/bdnav/index_parse.c:162: indx_parse(): error opening C:\Users\guthrie\Desktop\NewVideo\Sony 4K Demo Another World.mp4/BDMV/index.bdmv
  17. libbluray/bdnav/index_parse.c:162: indx_parse(): error opening C:\Users\guthrie\Desktop\NewVideo\Sony 4K Demo Another World.mp4/BDMV/BACKUP/index.bdmv
  18. libbluray/bluray.c:2182: nav_get_title_list(C:\Users\guthrie\Desktop\NewVideo\Sony 4K Demo Another World.mp4) failed
  19. [07:34:57] bd: not a bd - trying as a stream/file instead
  20. libdvdnav: Using dvdnav version 5.0.1
  21. libdvdread: Encrypted DVD support unavailable.
  22. libdvdread:DVDOpenFileUDF:UDFFindFile /VIDEO_TS/VIDEO_TS.IFO failed
  23. libdvdread:DVDOpenFileUDF:UDFFindFile /VIDEO_TS/VIDEO_TS.BUP failed
  24. libdvdread: Can't open file VIDEO_TS.IFO.
  25. libdvdnav: vm: failed to read VIDEO_TS.IFO
  26. [07:34:57] dvd: not a dvd - trying as a stream/file instead
  27. Input #0, mov,mp4,m4a,3gp,3g2,mj2, from 'C:\Users\guthrie\Desktop\NewVideo\Sony 4K Demo Another World.mp4':
  28. Metadata:
  29. major_brand : isom
  30. minor_version : 512
  31. compatible_brands: isomiso2mp41
  32. encoder : Lavf58.29.100
  33. Duration: 00:03:11.28, start: 0.000000, bitrate: 7719 kb/s
  34. Stream #0.0(und): Video: av01 / 0x31307661, 3840x2160, 7589 kb/s, 23.98 fps, 90k tbn (default)
  35. Stream #0.1(und): Audio: aac, 44100 Hz, stereo, fltp, 127 kb/s (default)
  36. [07:34:57] scan: decoding previews for title 1
  37. No video decoder set!
  38. Last error repeated 1 times
  39. No video decoder set!
  40. [07:34:57] scan: decoding previews for title 1
  41. [07:34:57] libhb: scan thread found 0 valid title(s)
  42.  
RAW Paste Data

Adblocker detected! Please consider disabling it...

We've detected AdBlock Plus or some other adblocking software preventing Pastebin.com from fully loading.

We don't have any obnoxious sound, or popup ads, we actively block these annoying types of ads!

Please add Pastebin.com to your ad blocker whitelist or disable your adblocking software.

×