SHARE
TWEET

Bull.Durham.1988.1080p.BluRay.REMUX.AVC.DTS-HD.MA.5.1-EPSiLON

a guest Jun 16th, 2019 23 Never
Not a member of Pastebin yet? Sign Up, it unlocks many cool features!
  1. General
  2. Complete name                            : Bull.Durham.1988.1080p.BluRay.REMUX.AVC.DTS-HD.MA.5.1-EPSiLON.mkv
  3. Format                                   : Matroska
  4. Format version                           : Version 4
  5. File size                                : 30.1 GiB
  6. Duration                                 : 1 h 47 min
  7. Overall bit rate mode                    : Variable
  8. Overall bit rate                         : 39.9 Mb/s
  9. Encoded date                             : UTC 2018-08-22 19:12:24
  10. Writing application                      : mkvmerge v25.0.0 ('Prog Noir') 64-bit
  11. Writing library                          : libebml v1.3.6 + libmatroska v1.4.9
  12.  
  13. Video
  14. ID                                       : 1
  15. Format                                   : AVC
  16. Format/Info                              : Advanced Video Codec
  17. Format profile                           : High@L4.1
  18. Format settings                          : CABAC / 4 Ref Frames
  19. Format settings, CABAC                   : Yes
  20. Format settings, Reference frames        : 4 frames
  21. Codec ID                                 : V_MPEG4/ISO/AVC
  22. Duration                                 : 1 h 47 min
  23. Bit rate mode                            : Variable
  24. Bit rate                                 : 35.9 Mb/s
  25. Maximum bit rate                         : 37.0 Mb/s
  26. Width                                    : 1 920 pixels
  27. Height                                   : 1 080 pixels
  28. Display aspect ratio                     : 16:9
  29. Frame rate mode                          : Constant
  30. Frame rate                               : 23.976 (24000/1001) FPS
  31. Color space                              : YUV
  32. Chroma subsampling                       : 4:2:0
  33. Bit depth                                : 8 bits
  34. Scan type                                : Progressive
  35. Bits/(Pixel*Frame)                       : 0.722
  36. Stream size                              : 27.1 GiB (90%)
  37. Title                                    : MPEG-4 AVC Video / 36079 kbps / 1080p / 23.976 fps / 16:9 / High Profile 4.1
  38. Language                                 : English
  39. Default                                  : Yes
  40. Forced                                   : No
  41.  
  42. Audio #1
  43. ID                                       : 2
  44. Format                                   : DTS XLL
  45. Format/Info                              : Digital Theater Systems
  46. Commercial name                          : DTS-HD Master Audio
  47. Codec ID                                 : A_DTS
  48. Duration                                 : 1 h 47 min
  49. Bit rate mode                            : Variable
  50. Bit rate                                 : 3 469 kb/s
  51. Channel(s)                               : 6 channels
  52. Channel layout                           : C L R Ls Rs LFE
  53. Sampling rate                            : 48.0 kHz
  54. Frame rate                               : 93.750 FPS (512 SPF)
  55. Bit depth                                : 24 bits
  56. Compression mode                         : Lossless
  57. Stream size                              : 2.62 GiB (9%)
  58. Title                                    : DTS-HD Master Audio / 5.1 / 48 kHz / 3469 kbps / 24-bit
  59. Language                                 : English
  60. Default                                  : Yes
  61. Forced                                   : No
  62.  
  63. Audio #2
  64. ID                                       : 3
  65. Format                                   : AC-3
  66. Format/Info                              : Audio Coding 3
  67. Commercial name                          : Dolby Digital
  68. Codec ID                                 : A_AC3
  69. Duration                                 : 1 h 47 min
  70. Bit rate mode                            : Constant
  71. Bit rate                                 : 192 kb/s
  72. Channel(s)                               : 2 channels
  73. Channel layout                           : L R
  74. Sampling rate                            : 48.0 kHz
  75. Frame rate                               : 31.250 FPS (1536 SPF)
  76. Bit depth                                : 16 bits
  77. Compression mode                         : Lossy
  78. Stream size                              : 148 MiB (0%)
  79. Title                                    : Commentary by director Ron Shelton
  80. Language                                 : English
  81. Service kind                             : Complete Main
  82. Default                                  : No
  83. Forced                                   : No
  84.  
  85. Audio #3
  86. ID                                       : 4
  87. Format                                   : AC-3
  88. Format/Info                              : Audio Coding 3
  89. Commercial name                          : Dolby Digital
  90. Codec ID                                 : A_AC3
  91. Duration                                 : 1 h 47 min
  92. Bit rate mode                            : Constant
  93. Bit rate                                 : 192 kb/s
  94. Channel(s)                               : 2 channels
  95. Channel layout                           : L R
  96. Sampling rate                            : 48.0 kHz
  97. Frame rate                               : 31.250 FPS (1536 SPF)
  98. Bit depth                                : 16 bits
  99. Compression mode                         : Lossy
  100. Stream size                              : 148 MiB (0%)
  101. Title                                    : Commentary by actors Kevin Costner and Tim Robbins
  102. Language                                 : English
  103. Service kind                             : Complete Main
  104. Default                                  : No
  105. Forced                                   : No
  106.  
  107. Text #1
  108. ID                                       : 5
  109. Format                                   : PGS
  110. Codec ID                                 : S_HDMV/PGS
  111. Codec ID/Info                            : Picture based subtitle format used on BDs/HD-DVDs
  112. Duration                                 : 1 h 47 min
  113. Bit rate                                 : 66.8 kb/s
  114. Count of elements                        : 3448
  115. Stream size                              : 51.4 MiB (0%)
  116. Title                                    : SDH
  117. Language                                 : English
  118. Default                                  : No
  119. Forced                                   : No
  120.  
  121. Text #2
  122. ID                                       : 6
  123. Format                                   : PGS
  124. Muxing mode                              : zlib
  125. Codec ID                                 : S_HDMV/PGS
  126. Codec ID/Info                            : Picture based subtitle format used on BDs/HD-DVDs
  127. Duration                                 : 1 h 43 min
  128. Bit rate                                 : 32.8 kb/s
  129. Count of elements                        : 2771
  130. Stream size                              : 24.3 MiB (0%)
  131. Title                                    : Traditional
  132. Language                                 : Chinese
  133. Default                                  : Yes
  134. Forced                                   : No
  135.  
  136. Text #3
  137. ID                                       : 7
  138. Format                                   : PGS
  139. Codec ID                                 : S_HDMV/PGS
  140. Codec ID/Info                            : Picture based subtitle format used on BDs/HD-DVDs
  141. Duration                                 : 1 h 43 min
  142. Bit rate                                 : 24.0 kb/s
  143. Count of elements                        : 2773
  144. Stream size                              : 17.8 MiB (0%)
  145. Language                                 : Korean
  146. Default                                  : No
  147. Forced                                   : No
  148.  
  149. Text #4
  150. ID                                       : 8
  151. Format                                   : PGS
  152. Codec ID                                 : S_HDMV/PGS
  153. Codec ID/Info                            : Picture based subtitle format used on BDs/HD-DVDs
  154. Duration                                 : 1 h 43 min
  155. Bit rate                                 : 39.5 kb/s
  156. Count of elements                        : 2769
  157. Stream size                              : 29.2 MiB (0%)
  158. Language                                 : Spanish
  159. Default                                  : No
  160. Forced                                   : No
  161.  
  162. Menu
  163. 00:00:00.000                             : en:Chapter 1
  164. 00:08:56.661                             : en:Chapter 2
  165. 00:18:17.638                             : en:Chapter 3
  166. 00:24:36.725                             : en:Chapter 4
  167. 00:33:45.774                             : en:Chapter 5
  168. 00:42:28.588                             : en:Chapter 6
  169. 00:52:39.865                             : en:Chapter 7
  170. 00:59:58.094                             : en:Chapter 8
  171. 01:04:55.183                             : en:Chapter 9
  172. 01:13:09.510                             : en:Chapter 10
  173. 01:17:39.947                             : en:Chapter 11
  174. 01:26:15.837                             : en:Chapter 12
  175. 01:28:51.868                             : en:Chapter 13
  176. 01:37:56.829                             : en:Chapter 14
RAW Paste Data
We use cookies for various purposes including analytics. By continuing to use Pastebin, you agree to our use of cookies as described in the Cookies Policy. OK, I Understand
Not a member of Pastebin yet?
Sign Up, it unlocks many cool features!
 
Top