Ledger Nano X - The secure hardware wallet
SHARE
TWEET

Untitled

a guest Mar 28th, 2020 63 Never
Not a member of Pastebin yet? Sign Up, it unlocks many cool features!
  1. General
  2. Unique ID :
  3. 88231403721166188393353647395772352885 (0x4260C0102267BBADB7D8E872CCC4C975)
  4. Complete name :
  5. /home/qbtuser/Downloads/Filmy/Sala.samobojcow.Hejter.2020.PL.1080p.WEBRip.x264-FOX.mkv
  6. Format :
  7. Matroska
  8. Format version :
  9. Version 2
  10. File size :
  11. 4.68 GiB
  12. Duration :
  13. 2 h 9 min
  14. Overall bit rate :
  15. 5 159 kb/s
  16. Writing application :
  17. Lavf54.63.104
  18. Writing library :
  19. Lavf54.63.104 / Lavf54.63.104
  20. Video
  21. ID :
  22. 1
  23. Format :
  24. AVC
  25. Format/Info :
  26. Advanced Video Codec
  27. Format profile :
  28. Main@L4
  29. Format settings, CABAC :
  30. Yes
  31. Format settings, ReFrames :
  32. 1 frame
  33. Codec ID :
  34. V_MPEG4/ISO/AVC
  35. Duration :
  36. 2 h 9 min
  37. Bit rate :
  38. 5 000 kb/s
  39. Width :
  40. 1 920 pixels
  41. Height :
  42. 804 pixels
  43. Display aspect ratio :
  44. 2.40:1
  45. Frame rate mode :
  46. Constant
  47. Frame rate :
  48. 30.000 FPS
  49. Color space :
  50. YUV
  51. Chroma subsampling :
  52. 4:2:0
  53. Bit depth :
  54. 8 bits
  55. Scan type :
  56. Progressive
  57. Bits/(Pixel*Frame) :
  58. 0.108
  59. Stream size :
  60. 4.41 GiB (94%)
  61. Writing library :
  62. x264 core 129
  63. Encoding settings :
  64. cabac=1 / ref=1 / deblock=1:0:0 / analyse=0x1:0x131 / me=dia / subme=2 / psy=1 / psy_rd=1.00:0.00 / mixed_ref=0 / me_range=16 / chroma_me=1 / trellis=0 / 8x8dct=0 / cqm=0 / deadzone=21,11 / fast_pskip=1 / chroma_qp_offset=0 / threads=8 / lookahead_threads=1 / sliced_threads=0 / nr=0 / decimate=1 / interlaced=0 / bluray_compat=0 / constrained_intra=0 / bframes=0 / weightp=2 / keyint=250 / keyint_min=25 / scenecut=40 / intra_refresh=0 / rc_lookahead=40 / rc=abr / mbtree=1 / bitrate=5000 / ratetol=1.0 / qcomp=0.60 / qpmin=10 / qpmax=51 / qpstep=4 / ip_ratio=1.41 / aq=1:1.00
  65. Default :
  66. Yes
  67. Forced :
  68. No
  69. Audio
  70. ID :
  71. 2
  72. Format :
  73. AC-3
  74. Format/Info :
  75. Audio Coding 3
  76. Mode extension :
  77. CM (complete main)
  78. Format settings, Endianness :
  79. Big
  80. Codec ID :
  81. A_AC3
  82. Duration :
  83. 2 h 9 min
  84. Bit rate mode :
  85. Constant
  86. Bit rate :
  87. 192 kb/s
  88. Channel(s) :
  89. 2 channels
  90. Channel positions :
  91. Front: L R
  92. Sampling rate :
  93. 48.0 kHz
  94. Frame rate :
  95. 31.250 FPS (1536 spf)
  96. Bit depth :
  97. 16 bits
  98. Compression mode :
  99. Lossy
  100. Stream size :
  101. 178 MiB (4%)
  102. Default :
  103. Yes
  104. Forced :
  105. No
RAW Paste Data
We use cookies for various purposes including analytics. By continuing to use Pastebin, you agree to our use of cookies as described in the Cookies Policy. OK, I Understand
Top