Guest User

Untitled

a guest
Jan 13th, 2017
699
Never
Not a member of Pastebin yet? Sign Up, it unlocks many cool features!
  1. http://192.168.178.71:8096/emby/Videos/d103172ecc62bc89c4b22a76b9577d8f/hls1/main/0.ts?MediaSourceId=d103172ecc62bc89c4b22a76b9577d8f&VideoCodec=h264&AudioCodec=ac3&MaxAudioChannels=6&deviceId=E4A9EFF9CB4546A9B03F717B5C233CFF&VideoBitrate=996000&AudioStreamIndex=1&AudioBitrate=384000
  2.  
  3. {"Protocol":"File","Id":"d103172ecc62bc89c4b22a76b9577d8f","Path":"/storage/videos/Der Herr der Ringe - Die Gefährten.mkv","Type":"Default","Container":"mkv","Name":"1080P/H264/AC3","ETag":"34159e5911fea0388522f013cc992d7c","RunTimeTicks":75996160000,"ReadAtNativeFramerate":false,"SupportsTranscoding":true,"SupportsDirectStream":true,"SupportsDirectPlay":true,"IsInfiniteStream":false,"RequiresOpening":false,"RequiresClosing":false,"SupportsProbing":true,"VideoType":"VideoFile","MediaStreams":[{"Codec":"h264","Language":"ger","TimeBase":"1/1000","CodecTimeBase":"583/27956","NalLengthSize":"4","IsInterlaced":false,"IsAVC":true,"BitRate":3906556,"BitDepth":8,"RefFrames":1,"IsDefault":true,"IsForced":false,"Height":1080,"Width":1920,"AverageFrameRate":23.97599,"RealFrameRate":23.97599,"Profile":"High","Type":"Video","AspectRatio":"16:9","Index":0,"IsExternal":false,"IsTextSubtitleStream":false,"SupportsExternalStream":false,"PixelFormat":"yuv420p","Level":41,"IsAnamorphic":false},{"Codec":"ac3","Language":"ger","TimeBase":"1/1000","CodecTimeBase":"1/48000","DisplayTitle":"Ger Dolby Digital 5.1 Default","IsInterlaced":false,"ChannelLayout":"5.1","BitRate":640000,"Channels":6,"SampleRate":48000,"IsDefault":true,"IsForced":false,"Type":"Audio","Index":1,"IsExternal":false,"IsTextSubtitleStream":false,"SupportsExternalStream":false,"Level":0},{"Codec":"ac3","Language":"eng","TimeBase":"1/1000","CodecTimeBase":"1/48000","DisplayTitle":"Eng Dolby Digital 5.1","IsInterlaced":false,"ChannelLayout":"5.1","BitRate":640000,"Channels":6,"SampleRate":48000,"IsDefault":false,"IsForced":false,"Type":"Audio","Index":2,"IsExternal":false,"IsTextSubtitleStream":false,"SupportsExternalStream":false,"Level":0},{"Codec":"subrip","Language":"ger","TimeBase":"1/1000","CodecTimeBase":"1/1000","DisplayTitle":"Ger Default","IsInterlaced":false,"IsDefault":true,"IsForced":false,"Type":"Subtitle","Index":3,"IsExternal":false,"IsTextSubtitleStream":true,"SupportsExternalStream":true,"Level":0}],"PlayableStreamFileNames":[],"Formats":[],"Bitrate":3906556,"RequiredHttpHeaders":{}}
  4.  
  5. /storage/.kodi/addons/service.emby/bin/ffmpegx -i file:"/storage/videos/Der Herr der Ringe - Die Gefährten.mkv" -map_metadata -1 -threads 4 -map 0:0 -map 0:1 -map -0:s -codec:v:0 h264_omx -b:v 996000 -maxrate 996000 -bufsize 1992000 -vsync -1 -force_key_frames "expr:gte(t,n_forced*3)" -vf "scale=trunc(min(max(iw\,ih*dar)\,1280)/2)*2:trunc(ow/dar/2)*2" -flags -global_header -copyts -codec:a:0 ac3 -ac 6 -ab 384000 -af "adelay=1,aresample=async=1" -max_delay 5000000 -avoid_negative_ts disabled -start_at_zero -hls_time 3 -start_number 0 -hls_list_size 0 -y "/tmp/transcoding-temp/7a40549444c6c676e562979a2fbae3f8.m3u8"
  6.  
  7.  
  8. ffmpeg version 7.90.009-232-g9b51056-x Copyright (c) 2000-2016 the FFmpeg developers
  9. built with gcc 6.2.0 (GCC)
  10. configuration: --enable-gpl --disable-doc --enable-mmal --enable-omx-rpi --enable-libmp3lame --enable-openssl --arch=arm --cpu=cortex-a7 --cross-prefix=/home/chewitt/LibreELEC.80-addons/build.LibreELEC-RPi2.arm-8.0.0/toolchain/bin/armv7ve-libreelec-linux-gnueabi- --enable-cross-compile --sysroot=/home/chewitt/LibreELEC.80-addons/build.LibreELEC-RPi2.arm-8.0.0/toolchain/armv7ve-libreelec-linux-gnueabi/sysroot --sysinclude=/home/chewitt/LibreELEC.80-addons/build.LibreELEC-RPi2.arm-8.0.0/toolchain/armv7ve-libreelec-linux-gnueabi/sysroot/usr/include --target-os=linux --nm=/home/chewitt/LibreELEC.80-addons/build.LibreELEC-RPi2.arm-8.0.0/toolchain/bin/armv7ve-libreelec-linux-gnueabi-nm --ar=/home/chewitt/LibreELEC.80-addons/build.LibreELEC-RPi2.arm-8.0.0/toolchain/bin/armv7ve-libreelec-linux-gnueabi-ar --as=/home/chewitt/LibreELEC.80-addons/build.LibreELEC-RPi2.arm-8.0.0/toolchain/bin/armv7ve-libreelec-linux-gnueabi-gcc --cc=/home/chewitt/LibreELEC.80-addons/build.LibreELEC-RPi2.arm-8.0.0/toolchain/bin/armv7ve-libreelec-linux-gnueabi-gcc --ld=/home/chewitt/LibreELEC.80-addons/build.LibreELEC-RPi2.arm-8.0.0/toolchain/bin/armv7ve-libreelec-linux-gnueabi-gcc --pkg-config=/home/chewitt/LibreELEC.80-addons/build.LibreELEC-RPi2.arm-8.0.0/toolchain/bin/pkg-config --host-cc=/home/chewitt/LibreELEC.80-addons/build.LibreELEC-RPi2.arm-8.0.0/toolchain/bin/host-gcc --host-cflags='-O2 -Wall -pipe -I/home/chewitt/LibreELEC.80-addons/build.LibreELEC-RPi2.arm-8.0.0/toolchain/include -Wno-format-security' --host-ldflags='-Wl,-rpath,/home/chewitt/LibreELEC.80-addons/build.LibreELEC-RPi2.arm-8.0.0/toolchain/lib -L/home/chewitt/LibreELEC.80-addons/build.LibreELEC-RPi2.arm-8.0.0/toolchain/lib' --host-libs=-lm --extra-cflags='-DRPI=1 -I/home/chewitt/LibreELEC.80-addons/build.LibreELEC-RPi2.arm-8.0.0/toolchain/armv7ve-libreelec-linux-gnueabi/sysroot/usr/include/IL -I/home/chewitt/LibreELEC.80-addons/build.LibreELEC-RPi2.arm-8.0.0/toolchain/armv7ve-libreelec-linux-gnueabi/sysroot/usr/include/interface/vcos/pthreads -I/home/chewitt/LibreELEC.80-addons/build.LibreELEC-RPi2.arm-8.0.0/toolchain/armv7ve-libreelec-linux-gnueabi/sysroot/usr/include/interface/vmcs_host/linux -march=armv7ve -mabi=aapcs-linux -Wno-psabi -Wa,-mno-warn-deprecated -mcpu=cortex-a7 -mfloat-abi=hard -mfpu=neon-vfpv4 -fomit-frame-pointer -Wall -pipe -Os ' --extra-ldflags='-march=armv7ve -mtune=cortex-a7 -Wl,--as-needed ' --extra-libs='-lbcm_host -ldl -lmmal -lmmal_core -lmmal_util -lvchiq_arm -lvcos -lvcsm' --extra-version=x --enable-pic --enable-hardcoded-tables
  11. libavutil 55. 28.100 / 55. 28.100
  12. libavcodec 57. 48.101 / 57. 48.101
  13. libavformat 57. 41.100 / 57. 41.100
  14. libavdevice 57. 0.101 / 57. 0.101
  15. libavfilter 6. 47.100 / 6. 47.100
  16. libswscale 4. 1.100 / 4. 1.100
  17. libswresample 2. 1.100 / 2. 1.100
  18. libpostproc 54. 0.100 / 54. 0.100
  19. Input #0, matroska,webm, from 'file:/storage/videos/Der Herr der Ringe - Die Gefährten.mkv':
  20. Metadata:
  21. encoder : libebml v0.7.7 + libmatroska v0.8.1
  22. creation_time : 2009-05-18 12:51:19
  23. Duration: 02:06:39.62, start: 0.000000, bitrate: 3906 kb/s
  24. Stream #0:0(ger): Video: h264 (High), yuv420p, 1920x1080 [SAR 1:1 DAR 16:9], 23.98 fps, 23.98 tbr, 1k tbn, 47.95 tbc (default)
  25. Stream #0:1(ger): Audio: ac3, 48000 Hz, 5.1(side), fltp, 640 kb/s (default)
  26. Stream #0:2(eng): Audio: ac3, 48000 Hz, 5.1(side), fltp, 640 kb/s
  27. Stream #0:3(ger): Subtitle: subrip (default)
  28. [h264_omx @ 0x2dda120] Using OMX.broadcom.video_encode
  29. [hls @ 0x2df88b0] Using AVStream.codec to pass codec parameters to muxers is deprecated, use AVStream.codecpar instead.
  30. Last message repeated 1 times
  31. Output #0, hls, to '/tmp/transcoding-temp/7a40549444c6c676e562979a2fbae3f8.m3u8':
  32. Metadata:
  33. encoder : Lavf57.41.100
  34. Stream #0:0: Video: h264 (h264_omx), yuv420p, 1280x720 [SAR 1:1 DAR 16:9], q=2-31, 996 kb/s, 23.98 fps, 90k tbn, 23.98 tbc (default)
  35. Metadata:
  36. encoder : Lavc57.48.101 h264_omx
  37. Stream #0:1: Audio: ac3, 48000 Hz, 5.1, fltp, 384 kb/s (default)
  38. Metadata:
  39. encoder : Lavc57.48.101 ac3
  40. Stream mapping:
  41. Stream #0:0 -> #0:0 (h264 (native) -> h264 (h264_omx))
  42. Stream #0:1 -> #0:1 (ac3 (native) -> ac3 (native))
  43. Press [q] to stop, [?] for help
  44. VPU thread: policy=0 (???), pri=0
  45. Attempt to set: policy=1 (FIFO), pri=99
  46. VPU thread (after): policy=1 (FIFO), pri=99
  47. [h264 @ 0x2dfadb0] av_rpi_zc_ref: *** Not a single buf frame: copying
  48. Last message repeated 1 times
  49. [hls @ 0x2df88b0] Non-monotonous DTS in output stream 0:0; previous: 0, current: 0; changing to 1. This may result in incorrect timestamps in the output file.
  50. [h264 @ 0x2dfadb0] av_rpi_zc_ref: *** Not a single buf frame: copying
  51. Last message repeated 3 times
  52. frame= 6 fps=0.0 q=-0.0 size=N/A time=00:00:00.50 bitrate=N/A speed=0.887x
  53. [h264 @ 0x2dfadb0] av_rpi_zc_ref: *** Not a single buf frame: copying
  54. Last message repeated 4 times
  55. frame= 11 fps= 10 q=-0.0 size=N/A time=00:00:00.79 bitrate=N/A speed=0.725x
  56. [h264 @ 0x2dfadb0] av_rpi_zc_ref: *** Not a single buf frame: copying
  57. Last message repeated 7 times
  58. frame= 19 fps= 12 q=-0.0 size=N/A time=00:00:01.01 bitrate=N/A speed=0.62x
  59. [h264 @ 0x2dfadb0] av_rpi_zc_ref: *** Not a single buf frame: copying
  60. Last message repeated 5 times
  61. frame= 25 fps= 11 q=-0.0 size=N/A time=00:00:01.53 bitrate=N/A speed=0.703x
  62. [h264 @ 0x2dfadb0] av_rpi_zc_ref: *** Not a single buf frame: copying
  63. Last message repeated 5 times
  64. frame= 31 fps= 11 q=-0.0 size=N/A time=00:00:01.56 bitrate=N/A speed=0.577x
  65. [h264 @ 0x2dfadb0] av_rpi_zc_ref: *** Not a single buf frame: copying
  66. Last message repeated 7 times
  67. frame= 39 fps= 12 q=-0.0 size=N/A time=00:00:02.01 bitrate=N/A speed=0.615x
  68. [h264 @ 0x2dfadb0] av_rpi_zc_ref: *** Not a single buf frame: copying
  69. Last message repeated 6 times
  70. frame= 46 fps= 12 q=-0.0 size=N/A time=00:00:02.26 bitrate=N/A speed=0.594x
  71. [h264 @ 0x2dfadb0] av_rpi_zc_ref: *** Not a single buf frame: copying
  72. Last message repeated 6 times
  73. frame= 53 fps= 12 q=-0.0 size=N/A time=00:00:02.52 bitrate=N/A speed=0.575x
  74. [h264 @ 0x2dfadb0] av_rpi_zc_ref: *** Not a single buf frame: copying
  75. Last message repeated 4 times
  76. frame= 58 fps= 12 q=-0.0 size=N/A time=00:00:02.90 bitrate=N/A speed=0.595x
  77. [h264 @ 0x2dfadb0] av_rpi_zc_ref: *** Not a single buf frame: copying
  78. Last message repeated 6 times
  79. frame= 65 fps= 12 q=-0.0 size=N/A time=00:00:03.16 bitrate=N/A speed=0.587x
  80. [h264 @ 0x2dfadb0] av_rpi_zc_ref: *** Not a single buf frame: copying
  81. Last message repeated 5 times
  82. frame= 71 fps= 12 q=-0.0 size=N/A time=00:00:03.41 bitrate=N/A speed=0.581x
  83. [h264 @ 0x2dfadb0] av_rpi_zc_ref: *** Not a single buf frame: copying
  84. Last message repeated 5 times
  85. frame= 77 fps= 12 q=-0.0 size=N/A time=00:00:03.45 bitrate=N/A speed=0.534x
  86. [h264 @ 0x2dfadb0] av_rpi_zc_ref: *** Not a single buf frame: copying
  87. Last message repeated 6 times
  88. frame= 84 fps= 12 q=-0.0 size=N/A time=00:00:03.77 bitrate=N/A speed=0.538x
  89. [h264 @ 0x2dfadb0] av_rpi_zc_ref: *** Not a single buf frame: copying
  90. Last message repeated 5 times
  91. frame= 90 fps= 12 q=-0.0 size=N/A time=00:00:04.02 bitrate=N/A speed=0.536x
  92. [h264 @ 0x2dfadb0] av_rpi_zc_ref: *** Not a single buf frame: copying
  93. Last message repeated 5 times
  94. frame= 96 fps= 12 q=-0.0 size=N/A time=00:00:04.28 bitrate=N/A speed=0.53x
  95. [h264 @ 0x2dfadb0] av_rpi_zc_ref: *** Not a single buf frame: copying
  96. Last message repeated 5 times
  97. frame= 102 fps= 12 q=-0.0 size=N/A time=00:00:04.63 bitrate=N/A speed=0.537x
  98. [h264 @ 0x2dfadb0] av_rpi_zc_ref: *** Not a single buf frame: copying
  99. Last message repeated 5 times
  100. frame= 108 fps= 12 q=-0.0 size=N/A time=00:00:04.89 bitrate=N/A speed=0.536x
  101. [h264 @ 0x2dfadb0] av_rpi_zc_ref: *** Not a single buf frame: copying
  102. Last message repeated 5 times
  103. frame= 114 fps= 12 q=-0.0 size=N/A time=00:00:05.14 bitrate=N/A speed=0.534x
  104. [h264 @ 0x2dfadb0] av_rpi_zc_ref: *** Not a single buf frame: copying
  105. Last message repeated 5 times
  106. frame= 120 fps= 12 q=-0.0 size=N/A time=00:00:05.24 bitrate=N/A speed=0.514x
  107. [h264 @ 0x2dfadb0] av_rpi_zc_ref: *** Not a single buf frame: copying
  108. Last message repeated 5 times
  109. frame= 126 fps= 12 q=-0.0 size=N/A time=00:00:05.56 bitrate=N/A speed=0.519x
  110. [h264 @ 0x2dfadb0] av_rpi_zc_ref: *** Not a single buf frame: copying
  111. Last message repeated 5 times
  112. frame= 132 fps= 12 q=-0.0 size=N/A time=00:00:05.75 bitrate=N/A speed=0.513x
  113. [h264 @ 0x2dfadb0] av_rpi_zc_ref: *** Not a single buf frame: copying
  114. Last message repeated 5 times
  115. frame= 138 fps= 12 q=-0.0 size=N/A time=00:00:06.01 bitrate=N/A speed=0.513x
  116. [h264 @ 0x2dfadb0] av_rpi_zc_ref: *** Not a single buf frame: copying
  117. Last message repeated 6 times
  118. frame= 145 fps= 12 q=-0.0 size=N/A time=00:00:06.36 bitrate=N/A speed=0.52x
  119. [h264 @ 0x2dfadb0] av_rpi_zc_ref: *** Not a single buf frame: copying
  120. Last message repeated 6 times
  121. frame= 152 fps= 12 q=-0.0 size=N/A time=00:00:06.61 bitrate=N/A speed=0.517x
  122. [h264 @ 0x2dfadb0] av_rpi_zc_ref: *** Not a single buf frame: copying
  123. Last message repeated 6 times
  124. frame= 159 fps= 12 q=-0.0 size=N/A time=00:00:06.84 bitrate=N/A speed=0.512x
  125. [h264 @ 0x2dfadb0] av_rpi_zc_ref: *** Not a single buf frame: copying
  126. Last message repeated 4 times
  127. frame= 164 fps= 12 q=-0.0 size=N/A time=00:00:07.13 bitrate=N/A speed=0.514x
  128. [h264 @ 0x2dfadb0] av_rpi_zc_ref: *** Not a single buf frame: copying
  129. Last message repeated 5 times
  130. frame= 170 fps= 12 q=-0.0 size=N/A time=00:00:07.38 bitrate=N/A speed=0.513x
  131. [h264 @ 0x2dfadb0] av_rpi_zc_ref: *** Not a single buf frame: copying
  132. Last message repeated 5 times
  133. frame= 176 fps= 12 q=-0.0 size=N/A time=00:00:07.64 bitrate=N/A speed=0.513x
  134. [h264 @ 0x2dfadb0] av_rpi_zc_ref: *** Not a single buf frame: copying
  135. Last message repeated 6 times
  136. frame= 183 fps= 12 q=-0.0 size=N/A time=00:00:07.93 bitrate=N/A speed=0.515x
  137. [h264 @ 0x2dfadb0] av_rpi_zc_ref: *** Not a single buf frame: copying
  138. Last message repeated 5 times
  139. frame= 189 fps= 12 q=-0.0 size=N/A time=00:00:08.18 bitrate=N/A speed=0.514x
  140. [h264 @ 0x2dfadb0] av_rpi_zc_ref: *** Not a single buf frame: copying
  141. Last message repeated 6 times
  142. frame= 196 fps= 12 q=-0.0 size=N/A time=00:00:08.44 bitrate=N/A speed=0.512x
  143. [h264 @ 0x2dfadb0] av_rpi_zc_ref: *** Not a single buf frame: copying
RAW Paste Data