SHARE
TWEET

Primal Season 01 [Termnl]

a guest Oct 10th, 2019 69 Never
Not a member of Pastebin yet? Sign Up, it unlocks many cool features!
  1. General
  2. Unique ID                                : 156373077564630469860209520846118933621 (0x75A45BF85139241FD78A76E13B055475)
  3. Complete name                            : C:\Termnl\Done\Primal\Season 01\Primal - S01E01 - Spear and Fang (1080p WEB-DL x265 10bit Termnl).mkv
  4. Format                                   : Matroska
  5. Format version                           : Version 4
  6. File size                                : 211 MiB
  7. Duration                                 : 21 min 38 s
  8. Overall bit rate                         : 1 363 kb/s
  9. Encoded date                             : UTC 2019-10-10 02:11:22
  10. Writing application                      : mkvmerge v37.0.0 ('Leave It') 64-bit
  11. Writing library                          : libebml v1.3.9 + libmatroska v1.5.2
  12. Writing frontend                         : StaxRip v2.0.4.0
  13.  
  14. Video
  15. ID                                       : 1
  16. Format                                   : HEVC
  17. Format/Info                              : High Efficiency Video Coding
  18. Format profile                           : Main 10@L4@Main
  19. Codec ID                                 : V_MPEGH/ISO/HEVC
  20. Duration                                 : 21 min 38 s
  21. Bit rate                                 : 1 201 kb/s
  22. Width                                    : 1 920 pixels
  23. Height                                   : 1 080 pixels
  24. Display aspect ratio                     : 16:9
  25. Frame rate mode                          : Constant
  26. Frame rate                               : 23.976 (24000/1001) FPS
  27. Color space                              : YUV
  28. Chroma subsampling                       : 4:2:0
  29. Bit depth                                : 10 bits
  30. Bits/(Pixel*Frame)                       : 0.024
  31. Stream size                              : 186 MiB (88%)
  32. Writing library                          : x265 3.1+11-de920e0a3183:[Windows][GCC 9.1.1][64 bit] 10bit
  33. Encoding settings                        : rc=abr / bitrate=1200 / qcomp=0.60 / qpstep=4 / qpmax=69 / qpmin=0 / no-lossless / no-cu-lossless / ipratio=1.40 / pbratio=1.30 / aq-mode=2 / aq-strength=1.00 / psy-rd=2.00 / psy-rdoq=0.00 / rdoq-level=0 / cbqpoffs=0 / crqpoffs=0 / ctu=64 / min-cu-size=8 / ref=5 / limit-refs=1 / no-limit-modes / me=1 / subme=2 / merange=57 / no-hme / rd=3 / no-rd-refine / no-ssim-rd / rdpenalty=0 / deblock=0:0 / min-keyint=23 / keyint=250 / bframes=8 / bframe-bias=0 / b-adapt=2 / b-intra / b-pyramid / cutree / max-merge=3 / no-fades / weightp / no-weightb / no-rect / no-amp / sao / no-limit-sao / no-sao-non-deblock / early-skip / no-splitrd-skip / rskip / no-tskip / no-tskip-fast / no-fast-intra / scenecut=40 / scenecut-bias=0.05 / rc-lookahead=20 / gop-lookahead=0 / lookahead-slices=6 / max-tu-size=32 / tu-inter-depth=1 / tu-intra-depth=1 / limit-tu=0 / qg-size=32 / radl=0 / open-gop / no-hevc-aq / no-aq-motion / no-dynamic-refine / dynamic-rd=0.00 / nr-intra=0 / nr-inter=0 / strong-intra-smoothing / no-constrained-intra / no-strict-cbr / no-const-vbv / no-rc-grain / wpp / no-pmode / no-pme / no-psnr / no-ssim / signhide / stats-write=0 / stats-read=2 / cplxblur=20.0 / qblur=0.5 / zone-count=0 / input-csp=1 / input-res=1920x1080 / interlace=0 / total-frames=31126 / frame-threads=2 / level-idc=0 / high-tier=1 / uhd-bd=0 / no-analyze-src-pics / no-allow-non-conformance / no-repeat-headers / annexb / no-aud / no-hrd / info / hash=0 / temporal-mvp / no-temporal-layers / no-splice / no-intra-refresh / sar=0 / overscan=0 / videoformat=5 / range=0 / colorprim=1 / transfer=1 / colormatrix=1 / chromaloc=0 / display-window=0cll=0,0 / min-luma=0 / max-luma=1023 / log2-max-poc-lsb=8 / vui-timing-info / vui-hrd-info / slices=1 / no-opt-qp-pps / no-opt-ref-list-length-pps / no-multi-pass-opt-rps / no-opt-cu-delta-qp / no-hdr / no-hdr-opt / no-dhdr10-opt / no-idr-recovery-sei / analysis-reuse-level=5 / scale-factor=0 / refine-intra=0 / refine-inter=0 / refine-mv=0 / refine-ctu-distortion=0 / refine-analysis-type=0 / ctu-info=0 / copy-pic=1 / max-ausize-factor=1.0 / no-single-sei / no-svt / no-field / no-lowpass-dct / cpuid=1111039 / numa-pools=4 / log-level=2 / qp-adaptation-range=1.00
  34. Default                                  : Yes
  35. Forced                                   : No
  36. Color range                              : Limited
  37. Color primaries                          : BT.709
  38. Transfer characteristics                 : BT.709
  39. Matrix coefficients                      : BT.709
  40.  
  41. Audio
  42. ID                                       : 2
  43. Format                                   : AAC LC SBR
  44. Format/Info                              : Advanced Audio Codec Low Complexity with Spectral Band Replication
  45. Commercial name                          : HE-AAC
  46. Format settings                          : Explicit
  47. Codec ID                                 : A_AAC-2
  48. Duration                                 : 21 min 38 s
  49. Bit rate                                 : 160 kb/s
  50. Channel(s)                               : 6 channels
  51. Channel layout                           : C L R Ls Rs LFE
  52. Sampling rate                            : 48.0 kHz
  53. Frame rate                               : 23.438 FPS (2048 SPF)
  54. Compression mode                         : Lossy
  55. Delay relative to video                  : 31 ms
  56. Stream size                              : 24.8 MiB (12%)
  57. Language                                 : English
  58. Default                                  : No
  59. Forced                                   : No
  60.  
  61. Text
  62. ID                                       : 3
  63. Format                                   : UTF-8
  64. Codec ID                                 : S_TEXT/UTF8
  65. Codec ID/Info                            : UTF-8 Plain Text
  66. Duration                                 : 21 min 29 s
  67. Bit rate                                 : 20 b/s
  68. Count of elements                        : 288
  69. Stream size                              : 3.25 KiB (0%)
  70. Title                                    : SDH
  71. Language                                 : English
  72. Default                                  : No
  73. Forced                                   : No
RAW Paste Data
We use cookies for various purposes including analytics. By continuing to use Pastebin, you agree to our use of cookies as described in the Cookies Policy. OK, I Understand
Not a member of Pastebin yet?
Sign Up, it unlocks many cool features!
 
Top