SHARE
TWEET

[Commie] Yowamushi Pedal New Generation - 02 [2790600C].mkv

HYBRID_BEING Mar 12th, 2017 65 Never
Not a member of Pastebin yet? Sign Up, it unlocks many cool features!
  1. General
  2. Unique ID                                : 181437657181955271432534239956898700331 (0x887F9F27C59400A1969CDE220EE45C2B)
  3. Complete name                            : [Commie] Yowamushi Pedal New Generation - 02 [2790600C].mkv
  4. Format                                   : Matroska
  5. Format version                           : Version 4 / Version 2
  6. File size                                : 334 MiB
  7. Duration                                 : 23mn 50s
  8. Overall bit rate                         : 1 960 Kbps
  9. Encoded date                             : UTC 2017-01-24 07:22:31
  10. Writing application                      : mkvmerge v9.8.0 ('Kuglblids') 64bit
  11. Writing library                          : libebml v1.3.4 + libmatroska v1.4.5
  12. Attachments                              : FRABK.TTF / framd_0.ttf / gnyrwn971.ttf / how cute .ttf / IwaMinPro-Md-Kami_0.ttf / LT_C.ttf / LTFinnegan_MediumItalic_0.ttf / Marker SD.ttf / Mechanic_Pencil.ttf / pencilfied.ttf / RaleighLTStd-DemiBold_0.otf / EmilysHand Regular.ttf / FOTCometStdStripped-Bold_0.otf
  13.  
  14. Video
  15. ID                                       : 1
  16. Format                                   : AVC
  17. Format/Info                              : Advanced Video Codec
  18. Format profile                           : High 10@L5
  19. Format settings, CABAC                   : Yes
  20. Format settings, ReFrames                : 16 frames
  21. Codec ID                                 : V_MPEG4/ISO/AVC
  22. Duration                                 : 23mn 50s
  23. Bit rate                                 : 1 823 Kbps
  24. Width                                    : 1 280 pixels
  25. Height                                   : 720 pixels
  26. Display aspect ratio                     : 16:9
  27. Frame rate mode                          : Constant
  28. Frame rate                               : 23.976 (24000/1001) fps
  29. Color space                              : YUV
  30. Chroma subsampling                       : 4:2:0
  31. Bit depth                                : 10 bits
  32. Scan type                                : Progressive
  33. Bits/(Pixel*Frame)                       : 0.082
  34. Stream size                              : 311 MiB (93%)
  35. Writing library                          : x264 core 148 r2744+55 950084e t_mod_Custom [10-bit@all X86_64]
  36. Encoding settings                        : cabac=1 / ref=16 / deblock=1:0:0 / analyse=0x3:0x133 / me=umh / subme=10 / psy=1 / fade_compensate=0.70 / psy_rd=0.60:0.15 / mixed_ref=1 / me_range=24 / chroma_me=1 / trellis=2 / 8x8dct=1 / cqm=0 / deadzone=21,11 / fast_pskip=1 / chroma_qp_offset=-3 / threads=12 / lookahead_threads=3 / sliced_threads=0 / nr=0 / decimate=1 / interlaced=0 / bluray_compat=0 / constrained_intra=0 / fgo=0 / bframes=10 / b_pyramid=2 / b_adapt=2 / b_bias=0 / direct=3 / weightb=1 / open_gop=0 / weightp=2 / keyint=250 / keyint_min=23 / scenecut=40 / intra_refresh=0 / rc_lookahead=60 / rc=crf / mbtree=1 / crf=18.0000 / qcomp=0.70 / qpmin=0:0:0 / qpmax=81:81:81 / qpstep=4 / ip_ratio=1.40 / aq=3:0.80 / aq-sensitivity=10.00 / aq-factor=1.00:1.00:1.00 / aq2=0 / aq3=0
  37. Language                                 : English
  38. Default                                  : Yes
  39. Forced                                   : No
  40.  
  41. Audio
  42. ID                                       : 2
  43. Format                                   : AAC
  44. Format/Info                              : Advanced Audio Codec
  45. Format profile                           : LC
  46. Codec ID                                 : A_AAC
  47. Duration                                 : 23mn 50s
  48. Bit rate                                 : 128 Kbps
  49. Channel(s)                               : 2 channels
  50. Channel positions                        : Front: L R
  51. Sampling rate                            : 44.1 KHz
  52. Frame rate                               : 43.066 fps (1024 spf)
  53. Compression mode                         : Lossy
  54. Stream size                              : 21.8 MiB (7%)
  55. Language                                 : Japanese
  56. Default                                  : Yes
  57. Forced                                   : No
  58.  
  59. Text
  60. ID                                       : 3
  61. Format                                   : ASS
  62. Codec ID                                 : S_TEXT/ASS
  63. Codec ID/Info                            : Advanced Sub Station Alpha
  64. Duration                                 : 23mn 44s
  65. Bit rate                                 : 462 bps
  66. Count of elements                        : 702
  67. Compression mode                         : Lossless
  68. Stream size                              : 80.5 KiB (0%)
  69. Language                                 : English
  70. Default                                  : Yes
  71. Forced                                   : No
  72.  
  73. Menu
  74. 00:00:00.033                             : en:Intro
  75. 00:01:25.020                             : en:OP
  76. 00:02:55.070                             : en:Episode
  77. 00:21:34.060                             : en:ED
  78. 00:23:04.070                             : en:Outro
  79. 00:23:45.020                             : en:Endcard
RAW Paste Data
We use cookies for various purposes including analytics. By continuing to use Pastebin, you agree to our use of cookies as described in the Cookies Policy. OK, I Understand
Top