Guest User

Appointment.with.Death.1988.1080p.BluRay.DTS.x264-MaG

a guest
May 23rd, 2019
32
Never
Not a member of Pastebin yet? Sign Up, it unlocks many cool features!
  1. General
  2. Unique ID                                : 138865650109523081751980313895451998441 (0x68788D273129B7A6F4E26E85F4C7B8E9)
  3. Complete name                            : Appointment.with.Death.1988.1080p.BluRay.DTS.x264-MaG.mkv
  4. Format                                   : Matroska
  5. Format version                           : Version 4
  6. File size                                : 10.2 GiB
  7. Duration                                 : 1 h 42 min
  8. Overall bit rate                         : 14.3 Mb/s
  9. Encoded date                             : UTC 2018-12-11T03:02:23Z
  10. Writing application                      : HandBrake 1.0.7 2017040900
  11. Writing library                          : Lavf57.7.2
  12.  
  13. Video
  14. ID                                       : 1
  15. Format                                   : AVC
  16. Format/Info                              : Advanced Video Codec
  17. Format profile                           : High@L4.1
  18. Format settings                          : CABAC / 4 Ref Frames
  19. Format settings, CABAC                   : Yes
  20. Format settings, Reference frames        : 4 frames
  21. Codec ID                                 : V_MPEG4/ISO/AVC
  22. Duration                                 : 1 h 42 min
  23. Bit rate                                 : 12.5 Mb/s
  24. Width                                    : 1 920 pixels
  25. Height                                   : 1 040 pixels
  26. Display aspect ratio                     : 1.85:1
  27. Frame rate mode                          : Constant
  28. Frame rate                               : 23.976 (24000/1001) FPS
  29. Color space                              : YUV
  30. Chroma subsampling                       : 4:2:0
  31. Bit depth                                : 8 bits
  32. Scan type                                : Progressive
  33. Bits/(Pixel*Frame)                       : 0.260
  34. Stream size                              : 8.96 GiB (87%)
  35. Writing library                          : x264 core 148 r2708 86b7198
  36. Encoding settings                        : cabac=1 / ref=4 / deblock=1:-3:-3 / analyse=0x3:0x133 / me=umh / subme=9 / psy=1 / psy_rd=1.00:0.00 / mixed_ref=1 / me_range=24 / chroma_me=1 / trellis=2 / 8x8dct=1 / cqm=0 / deadzone=21,11 / fast_pskip=0 / chroma_qp_offset=-2 / threads=6 / lookahead_threads=1 / sliced_threads=0 / nr=0 / decimate=1 / interlaced=0 / bluray_compat=0 / constrained_intra=0 / bframes=6 / b_pyramid=2 / b_adapt=2 / b_bias=0 / direct=3 / weightb=1 / open_gop=0 / weightp=2 / keyint=240 / keyint_min=24 / scenecut=40 / intra_refresh=0 / rc_lookahead=60 / rc=crf / mbtree=1 / crf=20.0 / qcomp=0.60 / qpmin=0 / qpmax=69 / qpstep=4 / vbv_maxrate=62500 / vbv_bufsize=78125 / crf_max=0.0 / nal_hrd=none / filler=0 / ip_ratio=1.40 / aq=1:1.00
  37. Default                                  : Yes
  38. Forced                                   : No
  39. Color range                              : Limited
  40. Color primaries                          : BT.709
  41. Transfer characteristics                 : BT.709
  42. Matrix coefficients                      : BT.709
  43.  
  44. Audio
  45. ID                                       : 2
  46. Format                                   : DTS
  47. Format/Info                              : Digital Theater Systems
  48. Codec ID                                 : A_DTS
  49. Duration                                 : 1 h 42 min
  50. Bit rate mode                            : Constant
  51. Bit rate                                 : 1 509 kb/s
  52. Channel(s)                               : 2 channels
  53. Channel layout                           : L R
  54. Sampling rate                            : 48.0 kHz
  55. Frame rate                               : 93.750 FPS (512 SPF)
  56. Bit depth                                : 16 bits
  57. Compression mode                         : Lossy
  58. Stream size                              : 1.08 GiB (11%)
  59. Title                                    : DTS 2.0 Audio
  60. Language                                 : English
  61. Default                                  : Yes
  62. Forced                                   : No
  63.  
  64. Text #1
  65. ID                                       : 3
  66. Format                                   : PGS
  67. Codec ID                                 : S_HDMV/PGS
  68. Codec ID/Info                            : Picture based subtitle format used on BDs/HD-DVDs
  69. Language                                 : German
  70. Default                                  : No
  71. Forced                                   : No
  72.  
  73. Text #2
  74. ID                                       : 4
  75. Format                                   : PGS
  76. Codec ID                                 : S_HDMV/PGS
  77. Codec ID/Info                            : Picture based subtitle format used on BDs/HD-DVDs
  78. Language                                 : German
  79. Default                                  : No
  80. Forced                                   : No
  81.  
  82. Text #3
  83. ID                                       : 5
  84. Format                                   : PGS
  85. Codec ID                                 : S_HDMV/PGS
  86. Codec ID/Info                            : Picture based subtitle format used on BDs/HD-DVDs
  87. Language                                 : English
  88. Default                                  : No
  89. Forced                                   : No
  90.  
  91. Menu
  92. 00:00:00.000                             : :Chapter 1
  93. 00:04:47.954                             : :Chapter 2
  94. 00:18:10.715                             : :Chapter 3
  95. 00:24:54.451                             : :Chapter 4
  96. 00:33:45.315                             : :Chapter 5
  97. 00:42:21.956                             : :Chapter 6
  98. 00:50:36.116                             : :Chapter 7
  99. 00:58:56.742                             : :Chapter 8
  100. 01:07:19.869                             : :Chapter 9
  101. 01:16:40.221                             : :Chapter 10
  102. 01:24:45.789                             : :Chapter 11
  103. 01:33:13.755                             : :Chapter 12
RAW Paste Data