G2A Many GEOs
SHARE
TWEET

Untitled

a guest Jan 8th, 2020 61 Never
Not a member of Pastebin yet? Sign Up, it unlocks many cool features!
  1. General
  2. Unique ID : 212822212476425142671957968944827765447 (0xA01C1132F6F3F55AA578616BEB2C92C7)
  3. Complete name : Foxter.and.Max.(2019).WEBRip.1080p.UKR.mkv
  4. Format : Matroska
  5. Format version : Version 4
  6. File size : 2.80 GiB
  7. Duration : 1 h 28 min
  8. Overall bit rate mode : Variable
  9. Overall bit rate : 4 533 kb/s
  10. Encoded date : UTC 2020-01-08 12:08:45
  11. Writing application : mkvmerge v8.3.0 ('Over the Horizon') 64bit
  12. Writing library : libebml v1.3.1 + libmatroska v1.4.2
  13.  
  14. Video
  15. ID : 1
  16. Format : AVC
  17. Format/Info : Advanced Video Codec
  18. Format profile : Main@L4
  19. Format settings : CABAC / 1 Ref Frames
  20. Format settings, CABAC : Yes
  21. Format settings, ReFrames : 1 frame
  22. Codec ID : V_MPEG4/ISO/AVC
  23. Duration : 1 h 28 min
  24. Bit rate mode : Variable
  25. Bit rate : 4 339 kb/s
  26. Maximum bit rate : 13.5 Mb/s
  27. Width : 1 920 pixels
  28. Height : 1 080 pixels
  29. Display aspect ratio : 16:9
  30. Frame rate mode : Constant
  31. Frame rate : 24.000 FPS
  32. Color space : YUV
  33. Chroma subsampling : 4:2:0
  34. Bit depth : 8 bits
  35. Scan type : Progressive
  36. Bits/(Pixel*Frame) : 0.087
  37. Stream size : 2.68 GiB (96%)
  38. Default : Yes
  39. Forced : No
  40.  
  41. Audio
  42. ID : 2
  43. Format : AC-3
  44. Format/Info : Audio Coding 3
  45. Commercial name : Dolby Digital
  46. Codec ID : A_AC3
  47. Duration : 1 h 28 min
  48. Bit rate mode : Constant
  49. Bit rate : 192 kb/s
  50. Channel(s) : 2 channels
  51. Channel layout : L R
  52. Sampling rate : 48.0 kHz
  53. Frame rate : 31.250 FPS (1536 SPF)
  54. Bit depth : 16 bits
  55. Compression mode : Lossy
  56. Stream size : 122 MiB (4%)
  57. Default : Yes
  58. Forced : No
RAW Paste Data
We use cookies for various purposes including analytics. By continuing to use Pastebin, you agree to our use of cookies as described in the Cookies Policy. OK, I Understand
Top