SHARE
TWEET

Legacies.S01E13.ITA-ENG.1080p.iNFiNiTY.WEB-DL.AAC.2.0.H.264-

aleandroid Jul 19th, 2019 61 Never
Not a member of Pastebin yet? Sign Up, it unlocks many cool features!
  1. General
  2. Unique ID                                : 241021358454622396028864557969651588867 (0xB5530670213968C3BA5791775940DF03)
  3. Complete name                            : Legacies.S01E13.ITA-ENG.1080p.iNFiNiTY.WEB-DL.AAC.2.0.H.264-AX.mkv
  4. Format                                   : Matroska
  5. Format version                           : Version 4 / Version 2
  6. File size                                : 1.50 GiB
  7. Duration                                 : 40 min 40 s
  8. Overall bit rate                         : 5 297 kb/s
  9. Movie name                               : (1x13) Stato Confusionale
  10. Encoded date                             : UTC 2019-07-19 19:38:25
  11. Writing application                      : mkvmerge v35.0.0 ('All The Love In The World') 64-bit
  12. Writing library                          : libebml v1.3.9 + libmatroska v1.5.2
  13.  
  14. Video
  15. ID                                       : 1
  16. Format                                   : AVC
  17. Format/Info                              : Advanced Video Codec
  18. Format profile                           : High@L4
  19. Format settings                          : CABAC / 4 Ref Frames
  20. Format settings, CABAC                   : Yes
  21. Format settings, RefFrames               : 4 frames
  22. Codec ID                                 : V_MPEG4/ISO/AVC
  23. Duration                                 : 40 min 40 s
  24. Bit rate                                 : 5 200 kb/s
  25. Width                                    : 1 920 pixels
  26. Height                                   : 1 080 pixels
  27. Display aspect ratio                     : 16:9
  28. Frame rate mode                          : Constant
  29. Frame rate                               : 25.000 FPS
  30. Color space                              : YUV
  31. Chroma subsampling                       : 4:2:0
  32. Bit depth                                : 8 bits
  33. Scan type                                : Progressive
  34. Bits/(Pixel*Frame)                       : 0.100
  35. Stream size                              : 1.47 GiB (98%)
  36. Title                                    : iNFiNiTY WEB-DL 1080p
  37. Writing library                          : x264 core 142
  38. Encoding settings                        : cabac=1 / ref=3 / deblock=1:0:0 / analyse=0x3:0x113 / me=hex / subme=7 / psy=1 / psy_rd=1.00:0.00 / mixed_ref=1 / me_range=16 / chroma_me=1 / trellis=1 / 8x8dct=1 / cqm=0 / deadzone=21,11 / fast_pskip=1 / chroma_qp_offset=-2 / threads=4 / lookahead_threads=1 / sliced_threads=0 / nr=0 / decimate=1 / interlaced=0 / bluray_compat=0 / constrained_intra=0 / bframes=3 / b_pyramid=2 / b_adapt=1 / b_bias=0 / direct=1 / weightb=1 / open_gop=0 / weightp=2 / keyint=25 / keyint_min=2 / scenecut=0 / intra_refresh=0 / rc_lookahead=25 / rc=abr / mbtree=1 / bitrate=5200 / ratetol=1.0 / qcomp=0.60 / qpmin=0 / qpmax=69 / qpstep=4 / vbv_maxrate=5720 / vbv_bufsize=5200 / nal_hrd=none / filler=0 / ip_ratio=1.40 / aq=1:1.00
  39. Language                                 : English
  40. Default                                  : Yes
  41. Forced                                   : No
  42.  
  43. Audio #1
  44. ID                                       : 2
  45. Format                                   : AAC
  46. Format/Info                              : Advanced Audio Codec
  47. Format profile                           : HE-AAC / LC
  48. Format settings                          : Explicit
  49. Codec ID                                 : A_AAC-2
  50. Duration                                 : 40 min 40 s
  51. Bit rate                                 : 64.0 kb/s
  52. Channel(s)                               : 2 channels
  53. Channel positions                        : Front: L R
  54. Sampling rate                            : 48.0 kHz / 24.0 kHz
  55. Frame rate                               : 23.438 FPS (1024 SPF)
  56. Compression mode                         : Lossy
  57. Stream size                              : 18.6 MiB (1%)
  58. Title                                    : AAC 2.0
  59. Language                                 : Italian
  60. Default                                  : Yes
  61. Forced                                   : No
  62.  
  63. Audio #2
  64. ID                                       : 3
  65. Format                                   : AAC
  66. Format/Info                              : Advanced Audio Codec
  67. Format profile                           : HE-AAC / LC
  68. Format settings                          : Explicit
  69. Codec ID                                 : A_AAC-2
  70. Duration                                 : 40 min 40 s
  71. Bit rate                                 : 64.0 kb/s
  72. Channel(s)                               : 2 channels
  73. Channel positions                        : Front: L R
  74. Sampling rate                            : 48.0 kHz / 24.0 kHz
  75. Frame rate                               : 23.438 FPS (1024 SPF)
  76. Compression mode                         : Lossy
  77. Stream size                              : 18.6 MiB (1%)
  78. Title                                    : AAC 2.0
  79. Language                                 : English
  80. Default                                  : No
  81. Forced                                   : No
  82.  
  83. Text #1
  84. ID                                       : 4
  85. Format                                   : UTF-8
  86. Codec ID                                 : S_TEXT/UTF8
  87. Codec ID/Info                            : UTF-8 Plain Text
  88. Duration                                 : 40 min 7 s
  89. Bit rate                                 : 77 b/s
  90. Count of elements                        : 551
  91. Stream size                              : 22.8 KiB (0%)
  92. Title                                    : Full [IT]
  93. Language                                 : Italian
  94. Default                                  : No
  95. Forced                                   : No
  96.  
  97. Text #2
  98. ID                                       : 5
  99. Format                                   : UTF-8
  100. Codec ID                                 : S_TEXT/UTF8
  101. Codec ID/Info                            : UTF-8 Plain Text
  102. Duration                                 : 40 min 6 s
  103. Bit rate                                 : 79 b/s
  104. Count of elements                        : 569
  105. Stream size                              : 23.2 KiB (0%)
  106. Title                                    : Full [EN]
  107. Language                                 : English
  108. Default                                  : No
  109. Forced                                   : No
RAW Paste Data
We use cookies for various purposes including analytics. By continuing to use Pastebin, you agree to our use of cookies as described in the Cookies Policy. OK, I Understand
 
Top