SHARE
TWEET

Untitled

a guest Mar 13th, 2016 68 Never
Not a member of Pastebin yet? Sign Up, it unlocks many cool features!
  1.  
  2. ------------------------------------------------------------
  3.                         Environment
  4. ------------------------------------------------------------
  5.  
  6. StaxRip x64 : 1.3.2.0
  7. OS          : Windows 7 Home Premium
  8. Language    : English (United States)
  9. CPU         : Intel(R) Core(TM) i7-3770K CPU @ 3.50GHz
  10. GPU         : NVIDIA GeForce GTX 660
  11.  
  12. ------------------------------------------------------------
  13.                    Source file MediaInfo
  14. ------------------------------------------------------------
  15.  
  16. C:\my folder\obs\recordings\2016-act-j-ver-str.flv
  17.  
  18. General
  19. Complete name             : C:\my folder\obs\recordings\2016-act-j-ver-str.flv
  20. Format                    : Flash Video
  21. File size                 : 1.99 GiB
  22. Duration                  : 1h 46mn
  23. Overall bit rate          : 2 671 Kbps
  24. Writing application       : Open Broadcaster Software v0.657b
  25. fileSize                  : 2136030661.000
  26.  
  27. Video
  28. Format                    : AVC
  29. Format/Info               : Advanced Video Codec
  30. Format profile            : Main@L4.1
  31. Format settings, CABAC    : Yes
  32. Format settings, ReFrames : 4 frames
  33. Codec ID                  : 7
  34. Duration                  : 1h 46mn
  35. Bit rate                  : 2 500 Kbps
  36. Width                     : 936 pixels
  37. Height                    : 682 pixels
  38. Display aspect ratio      : 1.372
  39. Frame rate mode           : Constant
  40. Frame rate                : 30.000 fps
  41. Color space               : YUV
  42. Chroma subsampling        : 4:2:0
  43. Bit depth                 : 8 bits
  44. Scan type                 : Progressive
  45. Bits/(Pixel*Frame)        : 0.131
  46. Stream size               : 1.86 GiB (94%)
  47. Writing library           : x264 core 146 r2538 121396c
  48. Encoding settings         : cabac=1 / ref=1 / deblock=1:0:0 / analyse=0x1:0x111 / me=hex / subme=2 / psy=1 / psy_rd=1.00:0.00 / mixed_ref=0 / me_range=16 / chroma_me=1 / trellis=0 / 8x8dct=0 / cqm=0 / deadzone=21,11 / fast_pskip=1 / chroma_qp_offset=0 / threads=12 / lookahead_threads=4 / sliced_threads=0 / nr=0 / decimate=1 / interlaced=0 / bluray_compat=0 / constrained_intra=0 / bframes=3 / b_pyramid=2 / b_adapt=1 / b_bias=0 / direct=1 / weightb=1 / open_gop=0 / weightp=1 / keyint=60 / keyint_min=6 / scenecut=40 / intra_refresh=0 / rc_lookahead=10 / rc=cbr / mbtree=1 / bitrate=2500 / ratetol=1.0 / qcomp=0.60 / qpmin=0 / qpmax=69 / qpstep=4 / vbv_maxrate=2500 / vbv_bufsize=2500 / nal_hrd=none / filler=1 / ip_ratio=1.40 / aq=1:1.00
  49. Color range               : Limited
  50. Color primaries           : BT.709
  51. Transfer characteristics  : sYCC
  52. Matrix coefficients       : BT.709
  53.  
  54. Audio
  55. Format                    : AAC
  56. Format/Info               : Advanced Audio Codec
  57. Format profile            : LC
  58. Codec ID                  : 10
  59. Duration                  : 1h 46mn
  60. Bit rate                  : 160 Kbps
  61. Channel(s)                : 2 channels
  62. Channel positions         : Front: L R
  63. Sampling rate             : 48.0 KHz
  64. Frame rate                : 46.875 fps (1024 spf)
  65. Compression mode          : Lossy
  66. Delay relative to video   : 20ms
  67. Stream size               : 122 MiB (6%)
  68.  
  69.  
  70. ------------------------------------------------------------
  71.                     Index with ffmsindex
  72. ------------------------------------------------------------
  73.  
  74. "C:\Program Files - portable\StaxRip_x64_1.3.2.0\Apps\Plugins\both\ffms2\ffmsindex.exe" "C:\my folder\obs\recordings\2016-act-j-ver-str.flv" "C:\my folder\obs\recordings\2016-act-j-ver-str temp files\2016-act-j-ver-str.ffindex"
  75.  
  76. Writing index... done.
  77.  
  78. Start:    5:20:59 PM
  79. End:      5:21:21 PM
  80. Duration: 00:00:21
  81.  
  82.  
  83. ------------------------------------------------------------
  84.                            Script
  85. ------------------------------------------------------------
  86.  
  87. FFVideoSource("C:\my folder\obs\recordings\2016-act-j-ver-str.flv", cachefile = "C:\my folder\obs\recordings\2016-act-j-ver-str temp files\2016-act-j-ver-str.ffindex")
  88. Trim(0, 1679)
  89.  
  90. ------------------------------------------------------------
  91.                      Script Properties
  92. ------------------------------------------------------------
  93.  
  94. source frame count : 191955
  95. source frame rate  : 30.000000
  96. source duration    : 01:46:38.5000000
  97. target frame count : 1680
  98. target frame rate  : 30.000000
  99. target duration    : 00:00:56
  100.  
  101. ------------------------------------------------------------
  102.                   Demux audio using ffmpeg
  103. ------------------------------------------------------------
  104.  
  105. "C:\Program Files - portable\StaxRip_x64_1.3.2.0\Apps\ffmpeg\ffmpeg.exe" -i "C:\my folder\obs\recordings\2016-act-j-ver-str.flv" -c:a copy -vn -sn -y "C:\my folder\obs\recordings\2016-act-j-ver-str temp files\2016-act-j-ver-str ID2 20ms.m4a"
  106.  
  107. ffmpeg version N-76957-g7b11eea Copyright (c) 2000-2015 the FFmpeg developers
  108. built with gcc 5.2.0 (GCC)
  109. configuration: --enable-gpl --enable-version3 --disable-w32threads --enable-avisynth --enable-bzlib --enable-fontconfig --enable-frei0r --enable-gnutls --enable-iconv --enable-libass --enable-libbluray --enable-libbs2b --enable-libcaca --enable-libdcadec --enable-libfreetype --enable-libgme --enable-libgsm --enable-libilbc --enable-libmodplug --enable-libmp3lame --enable-libopencore-amrnb --enable-libopencore-amrwb --enable-libopenjpeg --enable-libopus --enable-librtmp --enable-libschroedinger --enable-libsoxr --enable-libspeex --enable-libtheora --enable-libtwolame --enable-libvidstab --enable-libvo-aacenc --enable-libvo-amrwbenc --enable-libvorbis --enable-libvpx --enable-libwavpack --enable-libwebp --enable-libx264 --enable-libx265 --enable-libxavs --enable-libxvid --enable-libzimg --enable-lzma --enable-decklink --enable-zlib
  110. libavutil      55.  9.100 / 55.  9.100
  111. libavcodec     57. 16.101 / 57. 16.101
  112. libavformat    57. 19.100 / 57. 19.100
  113. libavdevice    57.  0.100 / 57.  0.100
  114. libavfilter     6. 17.100 /  6. 17.100
  115. libswscale      4.  0.100 /  4.  0.100
  116. libswresample   2.  0.101 /  2.  0.101
  117. libpostproc    54.  0.100 / 54.  0.100
  118. Input #0, flv, from 'C:\my folder\obs\recordings\2016-act-j-ver-str.flv':
  119. Metadata:
  120. fileSize        : 2136030661
  121. audiochannels   : 2
  122. encoder         : Open Broadcaster Software v0.657b
  123. Duration: 01:46:38.00, start: 0.020000, bitrate: 2670 kb/s
  124. Stream #0:0: Video: h264 (Main), yuv420p(tv, bt709/bt709/iec61966-2-1), 936x682, 2560 kb/s, 30.30 fps, 30 tbr, 1k tbn, 60 tbc
  125. Stream #0:1: Audio: aac (LC), 48000 Hz, stereo, fltp, 163 kb/s
  126. [ipod @ 0000000002889840] Codec for stream 0 does not use global headers but container format requires global headers
  127. Output #0, ipod, to 'C:\my folder\obs\recordings\2016-act-j-ver-str temp files\2016-act-j-ver-str ID2 20ms.m4a':
  128. Metadata:
  129. fileSize        : 2136030661
  130. audiochannels   : 2
  131. encoder         : Lavf57.19.100
  132. Stream #0:0: Audio: aac (mp4a / 0x6134706D), 48000 Hz, stereo, 163 kb/s
  133. Stream mapping:
  134. Stream #0:1 -> #0:0 (copy)
  135. Press [q] to stop, [?] for help
  136. size=      18kB time=00:00:03.00 bitrate=  49.5kbits/s
  137. size=      28kB time=00:00:04.67 bitrate=  49.4kbits/s
  138. size=      38kB time=00:00:06.33 bitrate=  49.5kbits/s
  139. size=      58kB time=00:00:08.02 bitrate=  59.3kbits/s
  140. size=      84kB time=00:00:09.68 bitrate=  71.4kbits/s
  141. size=      94kB time=00:00:11.34 bitrate=  68.0kbits/s
  142. size=     104kB time=00:00:13.01 bitrate=  65.6kbits/s
  143. size=     114kB time=00:00:14.67 bitrate=  63.6kbits/s
  144. size=     124kB time=00:00:16.34 bitrate=  62.1kbits/s
  145. size=     134kB time=00:00:18.00 bitrate=  60.9kbits/s
  146. size=     156kB time=00:00:19.66 bitrate=  65.0kbits/s
  147. size=     189kB time=00:00:21.35 bitrate=  72.7kbits/s
  148. size=     222kB time=00:00:23.01 bitrate=  79.0kbits/s
  149. size=     256kB time=00:00:24.68 bitrate=  85.0kbits/s
  150. size=     293kB time=00:00:26.34 bitrate=  91.0kbits/s
  151. size=     326kB time=00:00:28.01 bitrate=  95.2kbits/s
  152. size=     363kB time=00:00:29.67 bitrate= 100.2kbits/s
  153. size=     401kB time=00:00:31.33 bitrate= 104.8kbits/s
  154. size=     441kB time=00:00:33.00 bitrate= 109.4kbits/s
  155. size=     484kB time=00:00:34.68 bitrate= 114.3kbits/s
  156. size=     525kB time=00:00:36.35 bitrate= 118.4kbits/s
  157. size=     568kB time=00:00:38.01 bitrate= 122.3kbits/s
  158. size=     591kB time=00:00:39.68 bitrate= 122.1kbits/s
  159. size=     634kB time=00:00:41.34 bitrate= 125.6kbits/s
  160. size=     676kB time=00:00:43.00 bitrate= 128.7kbits/s
  161. size=     720kB time=00:00:44.67 bitrate= 132.0kbits/s
  162. size=     766kB time=00:00:46.33 bitrate= 135.4kbits/s
  163. size=     809kB time=00:00:48.02 bitrate= 138.0kbits/s
  164. size=     850kB time=00:00:49.68 bitrate= 140.1kbits/s
  165. size=     891kB time=00:00:51.34 bitrate= 142.2kbits/s
  166. size=     931kB time=00:00:53.01 bitrate= 143.9kbits/s
  167. size=     972kB time=00:00:54.67 bitrate= 145.6kbits/s
  168. size=    1012kB time=00:00:56.34 bitrate= 147.2kbits/s
  169. size=    1053kB time=00:00:58.00 bitrate= 148.7kbits/s
  170. size=    1091kB time=00:00:59.66 bitrate= 149.8kbits/s
  171. size=    1132kB time=00:01:01.35 bitrate= 151.1kbits/s
  172. size=    1174kB time=00:01:03.01 bitrate= 152.6kbits/s
  173. size=    1217kB time=00:01:04.68 bitrate= 154.1kbits/s
  174. size=    1258kB time=00:01:06.34 bitrate= 155.4kbits/s
  175. size=    1298kB time=00:01:08.01 bitrate= 156.3kbits/s
  176. size=    1339kB time=00:01:09.67 bitrate= 157.4kbits/s
  177. size=    1379kB time=00:01:11.33 bitrate= 158.4kbits/s
  178. size=    1424kB time=00:01:13.00 bitrate= 159.8kbits/s
  179. size=    1468kB time=00:01:14.68 bitrate= 161.0kbits/s
  180. size=    1498kB time=00:01:16.35 bitrate= 160.8kbits/s
  181. size=    1532kB time=00:01:18.01 bitrate= 160.9kbits/s
  182. size=    1564kB time=00:01:19.68 bitrate= 160.8kbits/s
  183. size=    1597kB time=00:01:21.34 bitrate= 160.8kbits/s
  184. size=    1628kB time=00:01:23.00 bitrate= 160.7kbits/s
  185. size=    1662kB time=00:01:24.67 bitrate= 160.8kbits/s
  186. size=    1694kB time=00:01:26.33 bitrate= 160.8kbits/s
  187. size=    1727kB time=00:01:28.02 bitrate= 160.7kbits/s
  188. size=    1759kB time=00:01:29.68 bitrate= 160.7kbits/s
  189. size=    1792kB time=00:01:31.34 bitrate= 160.7kbits/s
  190. size=    1825kB time=00:01:33.01 bitrate= 160.7kbits/s
  191. size=    1858kB time=00:01:34.67 bitrate= 160.7kbits/s
  192. size=    1889kB time=00:01:36.34 bitrate= 160.6kbits/s
  193. size=    1922kB time=00:01:38.00 bitrate= 160.7kbits/s
  194. size=    1954kB time=00:01:39.66 bitrate= 160.6kbits/s
  195. size=    1987kB time=00:01:41.35 bitrate= 160.6kbits/s
  196. size=    2020kB time=00:01:43.01 bitrate= 160.6kbits/s
  197. size=    2052kB time=00:01:44.68 bitrate= 160.6kbits/s
  198. size=    2085kB time=00:01:46.34 bitrate= 160.6kbits/s
  199. size=    2117kB time=00:01:48.01 bitrate= 160.6kbits/s
  200. size=    2150kB time=00:01:49.67 bitrate= 160.6kbits/s
  201. size=    2182kB time=00:01:51.33 bitrate= 160.6kbits/s
  202. size=    2215kB time=00:01:53.00 bitrate= 160.6kbits/s
  203. size=    2247kB time=00:01:54.68 bitrate= 160.5kbits/s
  204. size=    2280kB time=00:01:56.35 bitrate= 160.6kbits/s
  205. size=    2313kB time=00:01:58.01 bitrate= 160.5kbits/s
  206. size=    2344kB time=00:01:59.68 bitrate= 160.5kbits/s
  207. size=    2379kB time=00:02:01.34 bitrate= 160.6kbits/s
  208. size=    2409kB time=00:02:03.00 bitrate= 160.4kbits/s
  209. size=    2442kB time=00:02:04.67 bitrate= 160.5kbits/s
  210. size=    2475kB time=00:02:06.33 bitrate= 160.5kbits/s
  211. size=    2508kB time=00:02:08.02 bitrate= 160.5kbits/s
  212. size=    2540kB time=00:02:09.68 bitrate= 160.5kbits/s
  213. size=    2573kB time=00:02:11.34 bitrate= 160.5kbits/s
  214. size=    2606kB time=00:02:13.01 bitrate= 160.5kbits/s
  215. size=    2638kB time=00:02:14.67 bitrate= 160.5kbits/s
  216. size=    2670kB time=00:02:16.34 bitrate= 160.5kbits/s
  217. size=    2703kB time=00:02:18.00 bitrate= 160.5kbits/s
  218. size=    2736kB time=00:02:19.66 bitrate= 160.5kbits/s
  219. size=    2769kB time=00:02:21.35 bitrate= 160.4kbits/s
  220. size=    2800kB time=00:02:23.01 bitrate= 160.4kbits/s
  221. size=    2833kB time=00:02:24.68 bitrate= 160.4kbits/s
  222. size=    2866kB time=00:02:26.34 bitrate= 160.4kbits/s
  223. size=    2899kB time=00:02:28.01 bitrate= 160.4kbits/s
  224. size=    2931kB time=00:02:29.67 bitrate= 160.4kbits/s
  225. size=    2964kB time=00:02:31.33 bitrate= 160.4kbits/s
  226. size=    2996kB time=00:02:33.00 bitrate= 160.4kbits/s
  227. size=    3028kB time=00:02:34.68 bitrate= 160.4kbits/s
  228. size=    3062kB time=00:02:36.35 bitrate= 160.4kbits/s
  229. size=    3094kB time=00:02:38.01 bitrate= 160.4kbits/s
  230. size=    3127kB time=00:02:39.68 bitrate= 160.4kbits/s
  231. size=    3159kB time=00:02:41.34 bitrate= 160.4kbits/s
  232. size=    3190kB time=00:02:43.00 bitrate= 160.3kbits/s
  233. size=    3224kB time=00:02:44.67 bitrate= 160.4kbits/s
  234. size=    3254kB time=00:02:46.33 bitrate= 160.2kbits/s
  235. size=    3268kB time=00:02:48.02 bitrate= 159.3kbits/s
  236. size=    3282kB time=00:02:49.68 bitrate= 158.4kbits/s
  237. size=    3292kB time=00:02:51.34 bitrate= 157.4kbits/s
  238. size=    3318kB time=00:02:53.01 bitrate= 157.1kbits/s
  239. size=    3352kB time=00:02:54.67 bitrate= 157.2kbits/s
  240. size=    3391kB time=00:02:56.34 bitrate= 157.5kbits/s
  241. size=    3433kB time=00:02:58.00 bitrate= 158.0kbits/s
  242. size=    3476kB time=00:02:59.66 bitrate= 158.5kbits/s
  243. size=    3518kB time=00:03:01.35 bitrate= 158.9kbits/s
  244. size=    3564kB time=00:03:03.01 bitrate= 159.5kbits/s
  245. size=    3606kB time=00:03:04.68 bitrate= 160.0kbits/s
  246. size=    3647kB time=00:03:06.34 bitrate= 160.3kbits/s
  247. size=    3679kB time=00:03:08.01 bitrate= 160.3kbits/s
  248. size=    3713kB time=00:03:09.67 bitrate= 160.4kbits/s
  249. size=    3744kB time=00:03:11.33 bitrate= 160.3kbits/s
  250. size=    3777kB time=00:03:13.00 bitrate= 160.3kbits/s
  251. size=    3810kB time=00:03:14.68 bitrate= 160.3kbits/s
  252. size=    3843kB time=00:03:16.35 bitrate= 160.3kbits/s
  253. size=    3874kB time=00:03:18.01 bitrate= 160.3kbits/s
  254. size=    3908kB time=00:03:19.68 bitrate= 160.3kbits/s
  255. size=    3940kB time=00:03:21.34 bitrate= 160.3kbits/s
  256. size=    3968kB time=00:03:23.00 bitrate= 160.1kbits/s
  257. size=    3985kB time=00:03:24.67 bitrate= 159.5kbits/s
  258. size=    4028kB time=00:03:26.33 bitrate= 159.9kbits/s
  259. size=    4070kB time=00:03:28.02 bitrate= 160.3kbits/s
  260. size=    4093kB time=00:03:29.68 bitrate= 159.9kbits/s
  261. size=    4108kB time=00:03:31.34 bitrate= 159.2kbits/s
  262. size=    4124kB time=00:03:33.01 bitrate= 158.6kbits/s
  263. size=    4145kB time=00:03:34.67 bitrate= 158.2kbits/s
  264. size=    4188kB time=00:03:36.34 bitrate= 158.6kbits/s
  265. size=    4232kB time=00:03:38.00 bitrate= 159.0kbits/s
  266. size=    4277kB time=00:03:39.66 bitrate= 159.5kbits/s
  267. size=    4321kB time=00:03:41.35 bitrate= 159.9kbits/s
  268. size=    4363kB time=00:03:43.01 bitrate= 160.3kbits/s
  269. size=    4396kB time=00:03:44.68 bitrate= 160.3kbits/s
  270. size=    4428kB time=00:03:46.34 bitrate= 160.3kbits/s
  271. size=    4461kB time=00:03:48.01 bitrate= 160.3kbits/s
  272. size=    4493kB time=00:03:49.67 bitrate= 160.3kbits/s
  273. size=    4526kB time=00:03:51.33 bitrate= 160.3kbits/s
  274.  
  275. Start:    5:27:18 PM
  276. End:      5:59:19 PM
  277. Duration: 00:32:01
  278.  
  279. General
  280. Complete name         : C:\my folder\obs\recordings\2016-act-j-ver-str temp files\2016-act-j-ver-str ID2 20ms.m4a
  281. Format                : MPEG-4
  282. Format profile        : Apple audio with iTunes info
  283. Codec ID              : M4A  (isom/iso2)
  284. File size             : 123 MiB
  285. Duration              : 1h 46mn
  286. Overall bit rate mode : Variable
  287. Overall bit rate      : 161 Kbps
  288. Writing application   : Lavf57.19.100
  289.  
  290. Audio
  291. ID                    : 1
  292. Format                : AAC
  293. Format/Info           : Advanced Audio Codec
  294. Format profile        : LC
  295. Codec ID              : 40
  296. Duration              : 1h 46mn
  297. Bit rate mode         : Variable
  298. Bit rate              : 160 Kbps
  299. Maximum bit rate      : 164 Kbps
  300. Channel(s)            : 2 channels
  301. Channel positions     : Front: L R
  302. Sampling rate         : 48.0 KHz
  303. Frame rate            : 46.875 fps (1024 spf)
  304. Compression mode      : Lossy
  305. Stream size           : 122 MiB (99%)
  306. Default               : Yes
  307. Alternate group       : 1
  308.  
  309.  
  310. ------------------------------------------------------------
  311.                 Create avi file with ffmpeg
  312. ------------------------------------------------------------
  313.  
  314. mkvmerge cannot cut audio without video so we create
  315. a 16x16 pixel avi file using the following script:
  316.  
  317. BlankClip(length = 191955, fps = 30.000000, width = 16, height = 16, pixel_type = "YV12")
  318. KillAudio()
  319.  
  320. "C:\Program Files - portable\StaxRip_x64_1.3.2.0\Apps\ffmpeg\ffmpeg.exe" -i "C:\my folder\obs\recordings\2016-act-j-ver-str temp files\2016-act-j-ver-str ID2 20ms_cut_mm.avs" -c:v copy -y "C:\my folder\obs\recordings\2016-act-j-ver-str temp files\2016-act-j-ver-str ID2 20ms_cut_mm.avi"
  321.  
  322. ffmpeg version N-76957-g7b11eea Copyright (c) 2000-2015 the FFmpeg developers
  323. built with gcc 5.2.0 (GCC)
  324. configuration: --enable-gpl --enable-version3 --disable-w32threads --enable-avisynth --enable-bzlib --enable-fontconfig --enable-frei0r --enable-gnutls --enable-iconv --enable-libass --enable-libbluray --enable-libbs2b --enable-libcaca --enable-libdcadec --enable-libfreetype --enable-libgme --enable-libgsm --enable-libilbc --enable-libmodplug --enable-libmp3lame --enable-libopencore-amrnb --enable-libopencore-amrwb --enable-libopenjpeg --enable-libopus --enable-librtmp --enable-libschroedinger --enable-libsoxr --enable-libspeex --enable-libtheora --enable-libtwolame --enable-libvidstab --enable-libvo-aacenc --enable-libvo-amrwbenc --enable-libvorbis --enable-libvpx --enable-libwavpack --enable-libwebp --enable-libx264 --enable-libx265 --enable-libxavs --enable-libxvid --enable-libzimg --enable-lzma --enable-decklink --enable-zlib
  325. libavutil      55.  9.100 / 55.  9.100
  326. libavcodec     57. 16.101 / 57. 16.101
  327. libavformat    57. 19.100 / 57. 19.100
  328. libavdevice    57.  0.100 / 57.  0.100
  329. libavfilter     6. 17.100 /  6. 17.100
  330. libswscale      4.  0.100 /  4.  0.100
  331. libswresample   2.  0.101 /  2.  0.101
  332. libpostproc    54.  0.100 / 54.  0.100
  333. Input #0, avisynth, from 'C:\my folder\obs\recordings\2016-act-j-ver-str temp files\2016-act-j-ver-str ID2 20ms_cut_mm.avs':
  334. Duration: 01:46:38.50, start: 0.000000, bitrate: N/A
  335. Stream #0:0: Video: rawvideo (I420 / 0x30323449), yuv420p, 16x16, 30 fps, 30 tbr, 30 tbn, 30 tbc
  336. Output #0, avi, to 'C:\my folder\obs\recordings\2016-act-j-ver-str temp files\2016-act-j-ver-str ID2 20ms_cut_mm.avi':
  337. Metadata:
  338. ISFT            : Lavf57.19.100
  339. Stream #0:0: Video: rawvideo (I420 / 0x30323449), yuv420p, 16x16, q=2-31, 30 fps, 30 tbr, 30 tbn, 30 tbc
  340. Stream mapping:
  341. Stream #0:0 -> #0:0 (copy)
  342. Press [q] to stop, [?] for help
  343. video:71983kB audio:0kB subtitle:0kB other streams:0kB global headers:0kB muxing overhead: 6.257714%
  344.  
  345. Start:    5:59:19 PM
  346. End:      5:59:20 PM
  347. Duration: 00:00:01
  348.  
  349. General
  350. Complete name        : C:\my folder\obs\recordings\2016-act-j-ver-str temp files\2016-act-j-ver-str ID2 20ms_cut_mm.avi
  351. Format               : AVI
  352. Format/Info          : Audio Video Interleave
  353. File size            : 74.7 MiB
  354. Duration             : 1h 46mn
  355. Overall bit rate     : 97.9 Kbps
  356. Writing application  : Lavf57.19.100
  357.  
  358. Video
  359. ID                   : 0
  360. Format               : YUV
  361. Codec ID             : I420
  362. Codec ID/Info        : 8 bit Y plane followed by 8 bit 2x2 subsampled U and V planes.
  363. Duration             : 1h 46mn
  364. Bit rate             : 92.2 Kbps
  365. Width                : 16 pixels
  366. Height               : 16 pixels
  367. Display aspect ratio : 1.000
  368. Frame rate           : 30.000 fps
  369. Compression mode     : Lossless
  370. Bits/(Pixel*Frame)   : 12.000
  371. Stream size          : 70.3 MiB (94%)
  372.  
  373.  
  374. ------------------------------------------------------------
  375.                      Cut using mkvmerge
  376. ------------------------------------------------------------
  377.  
  378. "C:\Program Files - portable\StaxRip_x64_1.3.2.0\Apps\MKVToolNix\mkvmerge.exe" -o "C:\my folder\obs\recordings\2016-act-j-ver-str temp files\2016-act-j-ver-str ID2 20ms_cut_.mkv" "C:\my folder\obs\recordings\2016-act-j-ver-str temp files\2016-act-j-ver-str ID2 20ms_cut_mm.avi" "C:\my folder\obs\recordings\2016-act-j-ver-str temp files\2016-act-j-ver-str ID2 20ms.m4a" --split parts-frames:0-2416 --ui-language en
  379.  
  380. mkvmerge v8.9.0 ('Father Daughter') 64bit
  381. 'C:\my folder\obs\recordings\2016-act-j-ver-str temp files\2016-act-j-ver-str ID2 20ms_cut_mm.avi': Using the demultiplexer for the format 'AVI'.
  382. 'C:\my folder\obs\recordings\2016-act-j-ver-str temp files\2016-act-j-ver-str ID2 20ms.m4a': Using the demultiplexer for the format 'QuickTime/MP4'.
  383. 'C:\my folder\obs\recordings\2016-act-j-ver-str temp files\2016-act-j-ver-str ID2 20ms_cut_mm.avi' track 0: Using the output module for the format 'VfW compatible video'.
  384. 'C:\my folder\obs\recordings\2016-act-j-ver-str temp files\2016-act-j-ver-str ID2 20ms.m4a' track 0: Using the output module for the format 'AAC'.
  385. The file 'C:\my folder\obs\recordings\2016-act-j-ver-str temp files\2016-act-j-ver-str ID2 20ms_cut_.mkv' has been opened for writing.
  386. The cue entries (the index) are being written...
  387. Muxing took 0 seconds.
  388.  
  389. Start:    5:59:20 PM
  390. End:      5:59:21 PM
  391. Duration: 00:00:00
  392.  
  393. General
  394. Unique ID            : 207641667888972952426132259923720024595 (0x9C3654A17ADCFBCFB9257D4E66C23213)
  395. Complete name        : C:\my folder\obs\recordings\2016-act-j-ver-str temp files\2016-act-j-ver-str ID2 20ms_cut_.mkv
  396. Format               : Matroska
  397. Format version       : Version 4 / Version 2
  398. File size            : 2.54 MiB
  399. Duration             : 1mn 20s
  400. Overall bit rate     : 264 Kbps
  401. Encoded date         : UTC 2016-03-13 22:59:21
  402. Writing application  : mkvmerge v8.9.0 ('Father Daughter') 64bit
  403. Writing library      : libebml v1.3.3 + libmatroska v1.4.4
  404.  
  405. Video
  406. ID                   : 1
  407. Format               : YUV
  408. Codec ID             : V_MS/VFW/FOURCC / I420
  409. Codec ID/Info        : 8 bit Y plane followed by 8 bit 2x2 subsampled U and V planes.
  410. Duration             : 1mn 20s
  411. Bit rate             : 92.2 Kbps
  412. Width                : 16 pixels
  413. Height               : 16 pixels
  414. Display aspect ratio : 1.000
  415. Frame rate mode      : Constant
  416. Frame rate           : 30.000 fps
  417. Compression mode     : Lossless
  418. Bits/(Pixel*Frame)   : 12.000
  419. Stream size          : 906 KiB (35%)
  420. Default              : Yes
  421. Forced               : No
  422.  
  423. Audio
  424. ID                   : 2
  425. Format               : AAC
  426. Format/Info          : Advanced Audio Codec
  427. Format profile       : LC
  428. Codec ID             : A_AAC
  429. Duration             : 1mn 20s
  430. Bit rate             : 161 Kbps
  431. Channel(s)           : 2 channels
  432. Channel positions    : Front: L R
  433. Sampling rate        : 48.0 KHz
  434. Frame rate           : 46.875 fps (1024 spf)
  435. Compression mode     : Lossy
  436. Stream size          : 1.54 MiB (61%)
  437. Default              : Yes
  438. Forced               : No
  439.  
  440.  
  441. ------------------------------------------------------------
  442.                 Demux audio using mkvextract
  443. ------------------------------------------------------------
  444.  
  445. "C:\Program Files - portable\StaxRip_x64_1.3.2.0\Apps\MKVToolNix\mkvextract.exe" tracks "C:\my folder\obs\recordings\2016-act-j-ver-str temp files\2016-act-j-ver-str ID2 20ms_cut_.mkv" 1:"C:\my folder\obs\recordings\2016-act-j-ver-str temp files\2016-act-j-ver-str ID2 20ms_cut_.aac" --ui-language en
  446.  
  447. Extracting track 1 with the CodecID 'A_AAC' to the file 'C:\my folder\obs\recordings\2016-act-j-ver-str temp files\2016-act-j-ver-str ID2 20ms_cut_.aac'. Container format: raw AAC file with ADTS headers
  448.  
  449. Start:    5:59:21 PM
  450. End:      5:59:21 PM
  451. Duration: 00:00:00
  452.  
  453. General
  454. Complete name         : C:\my folder\obs\recordings\2016-act-j-ver-str temp files\2016-act-j-ver-str ID2 20ms_cut_.aac
  455. Format                : ADTS
  456. Format/Info           : Audio Data Transport Stream
  457. File size             : 1.57 MiB
  458. Overall bit rate mode : Variable
  459.  
  460. Audio
  461. Format                : AAC
  462. Format/Info           : Advanced Audio Codec
  463. Format version        : Version 4
  464. Format profile        : LC
  465. Bit rate mode         : Variable
  466. Channel(s)            : 2 channels
  467. Channel positions     : Front: L R
  468. Sampling rate         : 48.0 KHz
  469. Frame rate            : 46.875 fps (1024 spf)
  470. Compression mode      : Lossy
  471. Stream size           : 1.57 MiB (100%)
  472.  
  473.  
  474. ------------------------------------------------------------
  475.                        Mux AAC to M4A
  476. ------------------------------------------------------------
  477.  
  478. "C:\Program Files - portable\StaxRip_x64_1.3.2.0\Apps\MP4Box\MP4Box.exe" -add "C:\my folder\obs\recordings\2016-act-j-ver-str temp files\2016-act-j-ver-str ID2 20ms_cut_.aac:name= " -new "C:\my folder\obs\recordings\2016-act-j-ver-str temp files\2016-act-j-ver-str ID2 20ms_cut_.m4a"
  479.  
  480. AAC ADTS import  - sample rate 48000 - MPEG-4 audio - 2 channels
  481. Setting up iTunes/iPod file...
  482. Saving C:\my folder\obs\recordings\2016-act-j-ver-str temp files\2016-act-j-ver-str ID2 20ms_cut_.m4a: 0.500 secs Interleaving
  483.  
  484. General
  485. Complete name         : C:\my folder\obs\recordings\2016-act-j-ver-str temp files\2016-act-j-ver-str ID2 20ms_cut_.m4a
  486. Format                : MPEG-4
  487. Format profile        : Apple audio with iTunes info
  488. Codec ID              : M4A  (isom/M4A /mp42)
  489. File size             : 1.56 MiB
  490. Duration              : 1mn 20s
  491. Overall bit rate mode : Variable
  492. Overall bit rate      : 162 Kbps
  493. Encoded date          : UTC 2016-03-13 22:59:22
  494. Tagged date           : UTC 2016-03-13 22:59:22
  495.  
  496. Audio
  497. ID                    : 1
  498. Format                : AAC
  499. Format/Info           : Advanced Audio Codec
  500. Format profile        : LC
  501. Codec ID              : 40
  502. Duration              : 1mn 20s
  503. Bit rate mode         : Variable
  504. Bit rate              : 161 Kbps
  505. Maximum bit rate      : 230 Kbps
  506. Channel(s)            : 2 channels
  507. Channel positions     : Front: L R
  508. Sampling rate         : 48.0 KHz
  509. Frame rate            : 46.875 fps (1024 spf)
  510. Compression mode      : Lossy
  511. Stream size           : 1.54 MiB (99%)
  512. Title                 :
  513. Encoded date          : UTC 2016-03-13 22:59:22
  514. Tagged date           : UTC 2016-03-13 22:59:22
  515.  
  516.  
  517. Start:    5:59:22 PM
  518. End:      5:59:22 PM
  519. Duration: 00:00:00
  520.  
  521.  
  522. ------------------------------------------------------------
  523.            Convert from M4A to FLAC using ffmpeg
  524. ------------------------------------------------------------
  525.  
  526. "C:\Program Files - portable\StaxRip_x64_1.3.2.0\Apps\ffmpeg\ffmpeg.exe" -i "C:\my folder\obs\recordings\2016-act-j-ver-str temp files\2016-act-j-ver-str ID2 20ms_cut_.m4a" -y -ac 2 "C:\my folder\obs\recordings\2016-act-j-ver-str temp files\2016-act-j-ver-str ID2 20ms_cut_.flac"
  527.  
  528. ffmpeg version N-76957-g7b11eea Copyright (c) 2000-2015 the FFmpeg developers
  529. built with gcc 5.2.0 (GCC)
  530. configuration: --enable-gpl --enable-version3 --disable-w32threads --enable-avisynth --enable-bzlib --enable-fontconfig --enable-frei0r --enable-gnutls --enable-iconv --enable-libass --enable-libbluray --enable-libbs2b --enable-libcaca --enable-libdcadec --enable-libfreetype --enable-libgme --enable-libgsm --enable-libilbc --enable-libmodplug --enable-libmp3lame --enable-libopencore-amrnb --enable-libopencore-amrwb --enable-libopenjpeg --enable-libopus --enable-librtmp --enable-libschroedinger --enable-libsoxr --enable-libspeex --enable-libtheora --enable-libtwolame --enable-libvidstab --enable-libvo-aacenc --enable-libvo-amrwbenc --enable-libvorbis --enable-libvpx --enable-libwavpack --enable-libwebp --enable-libx264 --enable-libx265 --enable-libxavs --enable-libxvid --enable-libzimg --enable-lzma --enable-decklink --enable-zlib
  531. libavutil      55.  9.100 / 55.  9.100
  532. libavcodec     57. 16.101 / 57. 16.101
  533. libavformat    57. 19.100 / 57. 19.100
  534. libavdevice    57.  0.100 / 57.  0.100
  535. libavfilter     6. 17.100 /  6. 17.100
  536. libswscale      4.  0.100 /  4.  0.100
  537. libswresample   2.  0.101 /  2.  0.101
  538. libpostproc    54.  0.100 / 54.  0.100
  539. Input #0, mov,mp4,m4a,3gp,3g2,mj2, from 'C:\my folder\obs\recordings\2016-act-j-ver-str temp files\2016-act-j-ver-str ID2 20ms_cut_.m4a':
  540. Metadata:
  541. major_brand     : M4A
  542. minor_version   : 1
  543. compatible_brands: isomM4A mp42
  544. creation_time   : 2016-03-13 22:59:22
  545. Duration: 00:01:20.51, start: 0.000000, bitrate: 162 kb/s
  546. Stream #0:0(und): Audio: aac (LC) (mp4a / 0x6134706D), 48000 Hz, stereo, fltp, 160 kb/s (default)
  547. Metadata:
  548. creation_time   : 2016-03-13 22:59:22
  549. handler_name    :
  550. [flac @ 000000000057f2e0] encoding as 24 bits-per-sample
  551. Output #0, flac, to 'C:\my folder\obs\recordings\2016-act-j-ver-str temp files\2016-act-j-ver-str ID2 20ms_cut_.flac':
  552. Metadata:
  553. major_brand     : M4A
  554. minor_version   : 1
  555. compatible_brands: isomM4A mp42
  556. encoder         : Lavf57.19.100
  557. Stream #0:0(und): Audio: flac, 48000 Hz, stereo, s32 (24 bit), 128 kb/s (default)
  558. Metadata:
  559. creation_time   : 2016-03-13 22:59:22
  560. handler_name    :
  561. encoder         : Lavc57.16.101 flac
  562. Stream mapping:
  563. Stream #0:0 -> #0:0 (aac (native) -> flac (native))
  564. Press [q] to stop, [?] for help
  565. video:0kB audio:11012kB subtitle:0kB other streams:0kB global headers:0kB muxing overhead: 0.074145%
  566.  
  567. Start:    5:59:22 PM
  568. End:      5:59:23 PM
  569. Duration: 00:00:00
  570.  
  571. General
  572. Complete name         : C:\my folder\obs\recordings\2016-act-j-ver-str temp files\2016-act-j-ver-str ID2 20ms_cut_.flac
  573. Format                : FLAC
  574. Format/Info           : Free Lossless Audio Codec
  575. File size             : 10.8 MiB
  576. Duration              : 1mn 20s
  577. Overall bit rate mode : Variable
  578. Overall bit rate      : 1 121 Kbps
  579. Writing application   : Lavf57.19.100
  580. major_brand           : M4A
  581. minor_version         : 1
  582. compatible_brands     : isomM4A mp42
  583.  
  584. Audio
  585. Format                : FLAC
  586. Format/Info           : Free Lossless Audio Codec
  587. Duration              : 1mn 20s
  588. Bit rate mode         : Variable
  589. Bit rate              : 1 120 Kbps
  590. Channel(s)            : 2 channels
  591. Channel positions     : Front: L R
  592. Sampling rate         : 48.0 KHz
  593. Bit depth             : 24 bits
  594. Stream size           : 10.8 MiB (100%)
  595. Writing library       : Lavf57.19.100
  596.  
  597.  
  598. ------------------------------------------------------------
  599.                 Audio encoding using eac3to
  600. ------------------------------------------------------------
  601.  
  602. "C:\Program Files - portable\StaxRip_x64_1.3.2.0\Apps\eac3to\eac3to.exe" "C:\my folder\obs\recordings\2016-act-j-ver-str temp files\2016-act-j-ver-str ID2 20ms_cut_.flac" "C:\my folder\obs\recordings\2016-act-j-ver-str temp files\2016-act-j-ver-str ID2_cut__out.m4a" -quality=1 +20ms -downStereo -progressnumbers
  603.  
  604. FLAC, 2.0 channels, 0:01:21, 24 bits, 1121kbps, 48kHz
  605. Decoding FLAC...
  606. Applying RAW/PCM delay...
  607. Encoding AAC <1.00> with NeroAacEnc...
  608. The original audio track has a constant bit depth of 24 bits.
  609. eac3to processing took 2 seconds.
  610. Done.
  611.  
  612. Start:    5:59:23 PM
  613. End:      5:59:25 PM
  614. Duration: 00:00:02
  615.  
  616. General
  617. Complete name         : C:\my folder\obs\recordings\2016-act-j-ver-str temp files\2016-act-j-ver-str ID2_cut__out.m4a
  618. Format                : MPEG-4
  619. Format profile        : Base Media / Version 2
  620. Codec ID              : mp42 (M4A /mp42/isom)
  621. File size             : 3.08 MiB
  622. Duration              : 1mn 20s
  623. Overall bit rate mode : Variable
  624. Overall bit rate      : 320 Kbps
  625. Encoded date          : UTC 2016-03-13 22:59:23
  626. Tagged date           : UTC 2016-03-13 22:59:25
  627.  
  628. Audio
  629. ID                    : 1
  630. Format                : AAC
  631. Format/Info           : Advanced Audio Codec
  632. Format profile        : LC
  633. Codec ID              : 40
  634. Duration              : 1mn 20s
  635. Bit rate mode         : Variable
  636. Bit rate              : 318 Kbps
  637. Maximum bit rate      : 450 Kbps
  638. Channel(s)            : 2 channels
  639. Channel positions     : Front: L R
  640. Sampling rate         : 48.0 KHz
  641. Frame rate            : 46.875 fps (1024 spf)
  642. Compression mode      : Lossy
  643. Stream size           : 3.06 MiB (99%)
  644. Writing library       : Nero AAC codec 1.5.4.0
  645. Encoding settings     : -q 1.00
  646. Encoded date          : UTC 2016-03-13 22:59:23
  647. Tagged date           : UTC 2016-03-13 22:59:25
  648.  
  649. Menu
  650.  
  651.  
  652. ------------------------------------------------------------
  653.                             x264
  654. ------------------------------------------------------------
  655.  
  656. "C:\Program Files - portable\StaxRip_x64_1.3.2.0\Apps\x264\x264.exe" --crf 22 --output "C:\my folder\obs\recordings\2016-act-j-ver-str temp files\2016-act-j-ver-str redo_out.h264" "C:\my folder\obs\recordings\2016-act-j-ver-str temp files\2016-act-j-ver-str redo.avs"
  657.  
  658. avs [info]: 936x682p 0:0 @ 30/1 fps (cfr)
  659. x264 [info]: using cpu capabilities: MMX2 SSE2Fast SSSE3 SSE4.2 AVX
  660. x264 [info]: profile High, level 3.1
  661. x264 [info]: frame I:9     Avg QP:10.77  size: 25396
  662. x264 [info]: frame P:572   Avg QP:17.86  size:  5103
  663. x264 [info]: frame B:1099  Avg QP:17.49  size:   596
  664. x264 [info]: consecutive B-frames:  9.4%  9.4%  2.1% 79.0%
  665. x264 [info]: mb I  I16..4: 63.5% 23.7% 12.8%
  666. x264 [info]: mb P  I16..4:  0.4%  0.9%  1.2%  P16..4:  7.1%  1.4%  1.3%  0.0%  0.0%    skip:87.8%
  667. x264 [info]: mb B  I16..4:  0.0%  0.0%  0.1%  B16..8:  2.5%  0.4%  0.2%  direct: 0.2%  skip:96.5%  L0:45.6% L1:49.0% BI: 5.4%
  668. x264 [info]: 8x8 transform intra:30.2% inter:36.5%
  669. x264 [info]: coded y,uvDC,uvAC intra: 37.0% 44.6% 41.3% inter: 1.3% 2.6% 1.5%
  670. x264 [info]: i16 v,h,dc,p: 87% 10%  3%  0%
  671. x264 [info]: i8 v,h,dc,ddl,ddr,vr,hd,vl,hu: 28% 16% 45%  2%  2%  2%  2%  2%  2%
  672. x264 [info]: i4 v,h,dc,ddl,ddr,vr,hd,vl,hu: 33% 18% 17%  6%  8%  5%  4%  4%  5%
  673. x264 [info]: i8c dc,h,v,p: 70% 11% 14%  5%
  674. x264 [info]: Weighted P-Frames: Y:3.3% UV:1.0%
  675. x264 [info]: ref P L0: 76.9%  5.5% 11.8%  5.7%  0.0%
  676. x264 [info]: ref B L0: 82.8% 15.2%  1.9%
  677. x264 [info]: ref B L1: 96.7%  3.3%
  678. x264 [info]: kb/s:543.25
  679. encoded 1680 frames, 240.79 fps, 543.25 kb/s
  680.  
  681. Start:    5:59:25 PM
  682. End:      5:59:32 PM
  683. Duration: 00:00:07
  684.  
  685. General
  686. Complete name             : C:\my folder\obs\recordings\2016-act-j-ver-str temp files\2016-act-j-ver-str redo_out.h264
  687. Format                    : AVC
  688. Format/Info               : Advanced Video Codec
  689. File size                 : 3.63 MiB
  690. Writing library           : x264 core 148 r2597 e86f3a1
  691. Encoding settings         : cabac=1 / ref=3 / deblock=1:0:0 / analyse=0x3:0x113 / me=hex / subme=7 / psy=1 / psy_rd=1.00:0.00 / mixed_ref=1 / me_range=16 / chroma_me=1 / trellis=1 / 8x8dct=1 / cqm=0 / deadzone=21,11 / fast_pskip=1 / chroma_qp_offset=-2 / threads=9 / lookahead_threads=1 / sliced_threads=0 / nr=0 / decimate=1 / interlaced=0 / bluray_compat=0 / constrained_intra=0 / bframes=3 / b_pyramid=2 / b_adapt=1 / b_bias=0 / direct=1 / weightb=1 / open_gop=0 / weightp=2 / keyint=250 / keyint_min=25 / scenecut=40 / intra_refresh=0 / rc_lookahead=40 / rc=crf / mbtree=1 / crf=22.0 / qcomp=0.60 / qpmin=0 / qpmax=69 / qpstep=4 / ip_ratio=1.40 / aq=1:1.00
  692.  
  693. Video
  694. Format                    : AVC
  695. Format/Info               : Advanced Video Codec
  696. Format profile            : High@L3.1
  697. Format settings, CABAC    : Yes
  698. Format settings, ReFrames : 4 frames
  699. Width                     : 936 pixels
  700. Height                    : 682 pixels
  701. Display aspect ratio      : 1.372
  702. Frame rate                : 30.000 fps
  703. Color space               : YUV
  704. Chroma subsampling        : 4:2:0
  705. Bit depth                 : 8 bits
  706. Scan type                 : Progressive
  707. Writing library           : x264 core 148 r2597 e86f3a1
  708. Encoding settings         : cabac=1 / ref=3 / deblock=1:0:0 / analyse=0x3:0x113 / me=hex / subme=7 / psy=1 / psy_rd=1.00:0.00 / mixed_ref=1 / me_range=16 / chroma_me=1 / trellis=1 / 8x8dct=1 / cqm=0 / deadzone=21,11 / fast_pskip=1 / chroma_qp_offset=-2 / threads=9 / lookahead_threads=1 / sliced_threads=0 / nr=0 / decimate=1 / interlaced=0 / bluray_compat=0 / constrained_intra=0 / bframes=3 / b_pyramid=2 / b_adapt=1 / b_bias=0 / direct=1 / weightb=1 / open_gop=0 / weightp=2 / keyint=250 / keyint_min=25 / scenecut=40 / intra_refresh=0 / rc_lookahead=40 / rc=crf / mbtree=1 / crf=22.0 / qcomp=0.60 / qpmin=0 / qpmax=69 / qpstep=4 / ip_ratio=1.40 / aq=1:1.00
  709.  
  710.  
  711. ------------------------------------------------------------
  712.                    Muxing using mkvmerge
  713. ------------------------------------------------------------
  714.  
  715. "C:\Program Files - portable\StaxRip_x64_1.3.2.0\Apps\MKVToolNix\mkvmerge.exe" -o "C:\my folder\obs\recordings\2016-act-j-ver-str redo.mkv" --noaudio --nosubs --no-chapters --no-attachments --no-track-tags --no-global-tags --default-duration 0:30.000000fps "C:\my folder\obs\recordings\2016-act-j-ver-str temp files\2016-act-j-ver-str redo_out.h264" --novideo --nosubs --no-chapters --no-attachments --no-track-tags --no-global-tags --audio-tracks 0 --language 0:und "C:\my folder\obs\recordings\2016-act-j-ver-str temp files\2016-act-j-ver-str ID2_cut__out.m4a" --ui-language en
  716.  
  717. mkvmerge v8.9.0 ('Father Daughter') 64bit
  718. 'C:\my folder\obs\recordings\2016-act-j-ver-str temp files\2016-act-j-ver-str redo_out.h264': Using the demultiplexer for the format 'AVC/h.264'.
  719. 'C:\my folder\obs\recordings\2016-act-j-ver-str temp files\2016-act-j-ver-str ID2_cut__out.m4a': Using the demultiplexer for the format 'QuickTime/MP4'.
  720. 'C:\my folder\obs\recordings\2016-act-j-ver-str temp files\2016-act-j-ver-str redo_out.h264' track 0: Using the output module for the format 'AVC/h.264 (unframed)'.
  721. 'C:\my folder\obs\recordings\2016-act-j-ver-str temp files\2016-act-j-ver-str ID2_cut__out.m4a' track 0: Using the output module for the format 'AAC'.
  722. The file 'C:\my folder\obs\recordings\2016-act-j-ver-str redo.mkv' has been opened for writing.
  723. The cue entries (the index) are being written...
  724. Muxing took 0 seconds.
  725.  
  726. Start:    5:59:32 PM
  727. End:      5:59:33 PM
  728. Duration: 00:00:00
  729.  
  730. General
  731. Unique ID                 : 181252110880415093200280161361680984808 (0x885BE304328F0C8EBFB887E7D008EAE8)
  732. Complete name             : C:\my folder\obs\recordings\2016-act-j-ver-str redo.mkv
  733. Format                    : Matroska
  734. Format version            : Version 4 / Version 2
  735. File size                 : 6.71 MiB
  736. Duration                  : 1mn 20s
  737. Overall bit rate          : 699 Kbps
  738. Encoded date              : UTC 2016-03-13 22:59:33
  739. Writing application       : mkvmerge v8.9.0 ('Father Daughter') 64bit
  740. Writing library           : libebml v1.3.3 + libmatroska v1.4.4
  741.  
  742. Video
  743. ID                        : 1
  744. Format                    : AVC
  745. Format/Info               : Advanced Video Codec
  746. Format profile            : High@L3.1
  747. Format settings, CABAC    : Yes
  748. Format settings, ReFrames : 4 frames
  749. Codec ID                  : V_MPEG4/ISO/AVC
  750. Duration                  : 56s 0ms
  751. Bit rate                  : 543 Kbps
  752. Width                     : 936 pixels
  753. Height                    : 682 pixels
  754. Display aspect ratio      : 1.372
  755. Frame rate mode           : Constant
  756. Frame rate                : 30.000 fps
  757. Color space               : YUV
  758. Chroma subsampling        : 4:2:0
  759. Bit depth                 : 8 bits
  760. Scan type                 : Progressive
  761. Bits/(Pixel*Frame)        : 0.028
  762. Stream size               : 3.63 MiB (54%)
  763. Writing library           : x264 core 148 r2597 e86f3a1
  764. Encoding settings         : cabac=1 / ref=3 / deblock=1:0:0 / analyse=0x3:0x113 / me=hex / subme=7 / psy=1 / psy_rd=1.00:0.00 / mixed_ref=1 / me_range=16 / chroma_me=1 / trellis=1 / 8x8dct=1 / cqm=0 / deadzone=21,11 / fast_pskip=1 / chroma_qp_offset=-2 / threads=9 / lookahead_threads=1 / sliced_threads=0 / nr=0 / decimate=1 / interlaced=0 / bluray_compat=0 / constrained_intra=0 / bframes=3 / b_pyramid=2 / b_adapt=1 / b_bias=0 / direct=1 / weightb=1 / open_gop=0 / weightp=2 / keyint=250 / keyint_min=25 / scenecut=40 / intra_refresh=0 / rc_lookahead=40 / rc=crf / mbtree=1 / crf=22.0 / qcomp=0.60 / qpmin=0 / qpmax=69 / qpstep=4 / ip_ratio=1.40 / aq=1:1.00
  765. Default                   : Yes
  766. Forced                    : No
  767.  
  768. Audio
  769. ID                        : 2
  770. Format                    : AAC
  771. Format/Info               : Advanced Audio Codec
  772. Format profile            : LC
  773. Codec ID                  : A_AAC
  774. Duration                  : 1mn 20s
  775. Bit rate                  : 319 Kbps
  776. Channel(s)                : 2 channels
  777. Channel positions         : Front: L R
  778. Sampling rate             : 48.0 KHz
  779. Frame rate                : 46.875 fps (1024 spf)
  780. Compression mode          : Lossy
  781. Delay relative to video   : 9ms
  782. Stream size               : 3.06 MiB (46%)
  783. Default                   : Yes
  784. Forced                    : No
  785.  
  786.  
  787. ------------------------------------------------------------
  788.                         Job Complete
  789. ------------------------------------------------------------
  790.  
  791.  
  792. Start:    5:27:17 PM
  793. End:      5:59:33 PM
  794. Duration: 00:32:15
RAW Paste Data
We use cookies for various purposes including analytics. By continuing to use Pastebin, you agree to our use of cookies as described in the Cookies Policy. OK, I Understand
 
Top