Advertisement
DAKUBABU

Untitled

Dec 11th, 2021
39
Never
Not a member of Pastebin yet? Sign Up, it unlocks many cool features!
  1. General
  2. Unique ID : 3894314026636354683976333019478983822 (0x2EE0481698AE8587E731E9CD593848E)
  3. Complete name : F:\IF\MoviezAddiction.Cc - If Beale Street Could Talk (2018) 1080p BluRay x264 EAC3 ESub Dual Audio [Hindi + English] 2.80GB.mkv
  4. Format : Matroska
  5. Format version : Version 4
  6. File size : 2.80 GiB
  7. Duration : 1 h 59 min
  8. Overall bit rate : 3 366 kb/s
  9. Movie name : MoviezAddiction.Cc | If Beale Street Could Talk (2018) 1080p BluRay x264 EAC3 ESub Dual Audio [Hindi + English] 2.80GB
  10. Encoded date : UTC 2021-12-11 17:59:58
  11. Writing application : mkvmerge v47.0.0 ('Black Flag') 64-bit
  12. Writing library : libebml v1.3.10 + libmatroska v1.5.2
  13.  
  14. Video
  15. ID : 3
  16. Format : AVC
  17. Format/Info : Advanced Video Codec
  18. Format profile : High@L4.1
  19. Format settings : CABAC / 4 Ref Frames
  20. Format settings, CABAC : Yes
  21. Format settings, Reference frames : 4 frames
  22. Codec ID : V_MPEG4/ISO/AVC
  23. Duration : 1 h 59 min
  24. Bit rate : 2 500 kb/s
  25. Width : 1 920 pixels
  26. Height : 960 pixels
  27. Display aspect ratio : 2.000
  28. Frame rate mode : Constant
  29. Frame rate : 23.976 (23976/1000) FPS
  30. Color space : YUV
  31. Chroma subsampling : 4:2:0
  32. Bit depth : 8 bits
  33. Scan type : Progressive
  34. Bits/(Pixel*Frame) : 0.057
  35. Stream size : 2.08 GiB (74%)
  36. Title : MoviezAddiction.Cc
  37. Writing library : x264 core 152 r2851M ba24899
  38. Encoding settings : cabac=1 / ref=4 / deblock=1:-1:-1 / analyse=0x3:0x113 / me=umh / subme=9 / psy=1 / psy_rd=1.00:0.15 / mixed_ref=1 / me_range=24 / chroma_me=1 / trellis=2 / 8x8dct=1 / cqm=0 / deadzone=21,11 / fast_pskip=1 / chroma_qp_offset=-3 / threads=32 / lookahead_threads=4 / sliced_threads=0 / nr=0 / decimate=1 / interlaced=0 / bluray_compat=0 / constrained_intra=0 / bframes=3 / b_pyramid=2 / b_adapt=2 / b_bias=0 / direct=3 / weightb=1 / open_gop=0 / weightp=2 / keyint=250 / keyint_min=25 / scenecut=40 / intra_refresh=0 / rc_lookahead=50 / rc=2pass / mbtree=1 / bitrate=2500 / ratetol=1.0 / qcomp=0.60 / qpmin=0 / qpmax=69 / qpstep=4 / cplxblur=20.0 / qblur=0.5 / vbv_maxrate=31250 / vbv_bufsize=31250 / nal_hrd=none / filler=0 / ip_ratio=1.40 / aq=3:1.00
  39. Language : English
  40. Default : Yes
  41. Forced : Yes
  42.  
  43. Audio #1
  44. ID : 1
  45. Format : E-AC-3
  46. Format/Info : Enhanced AC-3
  47. Commercial name : Dolby Digital Plus
  48. Codec ID : A_EAC3
  49. Duration : 1 h 59 min
  50. Bit rate mode : Constant
  51. Bit rate : 640 kb/s
  52. Channel(s) : 6 channels
  53. Channel layout : L R C LFE Ls Rs
  54. Sampling rate : 48.0 kHz
  55. Frame rate : 31.250 FPS (1536 SPF)
  56. Compression mode : Lossy
  57. Delay relative to video : 57 ms
  58. Stream size : 545 MiB (19%)
  59. Title : MoviezAddiction.Cc
  60. Language : Hindi
  61. Service kind : Complete Main
  62. Default : Yes
  63. Forced : Yes
  64.  
  65. Audio #2
  66. ID : 4
  67. Format : AAC LC
  68. Format/Info : Advanced Audio Codec Low Complexity
  69. Codec ID : A_AAC-2
  70. Duration : 1 h 59 min
  71. Bit rate : 224 kb/s
  72. Channel(s) : 6 channels
  73. Channel layout : C L R Ls Rs LFE
  74. Sampling rate : 48.0 kHz
  75. Frame rate : 46.875 FPS (1024 SPF)
  76. Compression mode : Lossy
  77. Delay relative to video : -43 ms
  78. Stream size : 191 MiB (7%)
  79. Title : MoviezAddiction.Cc
  80. Language : English
  81. Default : No
  82. Forced : Yes
  83.  
  84. Text
  85. ID : 2
  86. Format : UTF-8
  87. Codec ID : S_TEXT/UTF8
  88. Codec ID/Info : UTF-8 Plain Text
  89. Duration : 1 h 58 min
  90. Bit rate : 56 b/s
  91. Count of elements : 1611
  92. Stream size : 48.7 KiB (0%)
  93. Title : MoviezAddiction.Cc
  94. Language : English
  95. Default : Yes
  96. Forced : Yes
  97.  
  98.  
Advertisement
RAW Paste Data Copied
Advertisement