Guest User

There.Will.Be.Blood.2007.MULTi.1080p.BluRay.x264.DTS-FiDELiO

a guest
May 18th, 2019
97
Never
Not a member of Pastebin yet? Sign Up, it unlocks many cool features!
  1. General
  2. Unique ID                                : 332478615993526596829252083989111073570 (0xFA210D5FAB2431C0FA64192941DB6B22)
  3. Complete name                            : There.Will.Be.Blood.2007.MULTi.1080p.BluRay.x264.DTS-FiDELiO.mkv
  4. Format                                   : Matroska
  5. Format version                           : Version 4
  6. File size                                : 13.1 GiB
  7. Duration                                 : 2 h 38 min
  8. Overall bit rate                         : 11.9 Mb/s
  9. Encoded date                             : UTC 2013-11-12 12:03:42
  10. Writing application                      : mkvmerge v6.4.1 ('Omega Point') built on Sep 22 2013 18:21:24
  11. Writing library                          : libebml v1.3.0 + libmatroska v1.4.1 / Lavf54.63.104
  12.  
  13. Video
  14. ID                                       : 1
  15. Format                                   : AVC
  16. Format/Info                              : Advanced Video Codec
  17. Format profile                           : High@L4.1
  18. Format settings                          : CABAC / 5 Ref Frames
  19. Format settings, CABAC                   : Yes
  20. Format settings, Reference frames        : 5 frames
  21. Codec ID                                 : V_MPEG4/ISO/AVC
  22. Duration                                 : 2 h 38 min
  23. Bit rate                                 : 9 707 kb/s
  24. Width                                    : 1 920 pixels
  25. Height                                   : 800 pixels
  26. Display aspect ratio                     : 2.40:1
  27. Frame rate mode                          : Constant
  28. Frame rate                               : 23.976 (24000/1001) FPS
  29. Color space                              : YUV
  30. Chroma subsampling                       : 4:2:0
  31. Bit depth                                : 8 bits
  32. Scan type                                : Progressive
  33. Bits/(Pixel*Frame)                       : 0.264
  34. Stream size                              : 10.5 GiB (80%)
  35. Writing library                          : x264 core 140 r2377M 1ca7bb9
  36. Encoding settings                        : cabac=1 / ref=5 / deblock=1:0:0 / analyse=0x3:0x133 / me=umh / subme=10 / psy=1 / psy_rd=1.00:0.00 / mixed_ref=1 / me_range=24 / chroma_me=1 / trellis=2 / 8x8dct=1 / cqm=0 / deadzone=21,11 / fast_pskip=1 / chroma_qp_offset=-2 / threads=12 / lookahead_threads=2 / sliced_threads=0 / nr=0 / decimate=1 / interlaced=0 / bluray_compat=0 / constrained_intra=0 / bframes=8 / b_pyramid=2 / b_adapt=2 / b_bias=0 / direct=3 / weightb=1 / open_gop=0 / weightp=2 / keyint=250 / keyint_min=23 / scenecut=40 / intra_refresh=0 / rc_lookahead=60 / rc=2pass / mbtree=1 / bitrate=9707 / ratetol=1.0 / qcomp=0.60 / qpmin=0 / qpmax=69 / qpstep=4 / cplxblur=20.0 / qblur=0.5 / ip_ratio=1.40 / aq=1:1.00
  37. Default                                  : Yes
  38. Forced                                   : No
  39.  
  40. Audio #1
  41. ID                                       : 2
  42. Format                                   : DTS
  43. Format/Info                              : Digital Theater Systems
  44. Codec ID                                 : A_DTS
  45. Duration                                 : 2 h 38 min
  46. Bit rate mode                            : Constant
  47. Bit rate                                 : 1 509 kb/s
  48. Channel(s)                               : 6 channels
  49. Channel layout                           : C L R Ls Rs LFE
  50. Sampling rate                            : 48.0 kHz
  51. Frame rate                               : 93.750 FPS (512 SPF)
  52. Bit depth                                : 24 bits
  53. Compression mode                         : Lossy
  54. Stream size                              : 1.67 GiB (13%)
  55. Title                                    : French audio
  56. Language                                 : French
  57. Default                                  : Yes
  58. Forced                                   : No
  59.  
  60. Audio #2
  61. ID                                       : 3
  62. Format                                   : AC-3
  63. Format/Info                              : Audio Coding 3
  64. Commercial name                          : Dolby Digital
  65. Codec ID                                 : A_AC3
  66. Duration                                 : 2 h 38 min
  67. Bit rate mode                            : Constant
  68. Bit rate                                 : 640 kb/s
  69. Channel(s)                               : 6 channels
  70. Channel layout                           : L R C LFE Ls Rs
  71. Sampling rate                            : 48.0 kHz
  72. Frame rate                               : 31.250 FPS (1536 SPF)
  73. Bit depth                                : 16 bits
  74. Compression mode                         : Lossy
  75. Stream size                              : 725 MiB (5%)
  76. Title                                    : English audio
  77. Language                                 : English
  78. Service kind                             : Complete Main
  79. Default                                  : No
  80. Forced                                   : No
  81.  
  82. Text #1
  83. ID                                       : 4
  84. Format                                   : UTF-8
  85. Codec ID                                 : S_TEXT/UTF8
  86. Codec ID/Info                            : UTF-8 Plain Text
  87. Title                                    : Forced French subtitles
  88. Language                                 : French
  89. Default                                  : Yes
  90. Forced                                   : No
  91.  
  92. Text #2
  93. ID                                       : 5
  94. Format                                   : UTF-8
  95. Codec ID                                 : S_TEXT/UTF8
  96. Codec ID/Info                            : UTF-8 Plain Text
  97. Title                                    : French subtitles
  98. Language                                 : French
  99. Default                                  : No
  100. Forced                                   : No
  101.  
  102. Text #3
  103. ID                                       : 6
  104. Format                                   : UTF-8
  105. Codec ID                                 : S_TEXT/UTF8
  106. Codec ID/Info                            : UTF-8 Plain Text
  107. Title                                    : English subtitles
  108. Language                                 : English
  109. Default                                  : No
  110. Forced                                   : No
  111.  
  112. Text #4
  113. ID                                       : 7
  114. Format                                   : UTF-8
  115. Codec ID                                 : S_TEXT/UTF8
  116. Codec ID/Info                            : UTF-8 Plain Text
  117. Title                                    : English SDH
  118. Language                                 : English
  119. Default                                  : No
  120. Forced                                   : No
  121.  
  122. Menu
  123. 00:00:00.000                             : en:00:00:00.000
  124. 00:14:09.724                             : en:00:14:09.724
  125. 00:31:32.057                             : en:00:31:32.057
  126. 00:51:53.485                             : en:00:51:53.485
  127. 01:11:16.230                             : en:01:11:16.230
  128. 01:34:29.455                             : en:01:34:29.455
  129. 01:56:58.678                             : en:01:56:58.678
  130. 02:18:43.690                             : en:02:18:43.690
RAW Paste Data