SHARE
TWEET

Spider-Man: Far From Home HD-TS 720p

dirtyharrys Jul 9th, 2019 109 Never
Not a member of Pastebin yet? Sign Up, it unlocks many cool features!
  1. General
  2. Unique ID                   : 105631931977116271611840177741193244829 (0x4F77F857ACE6CA0E49C30EAE8F0F709D)
  3. Complete name               : E:\SERTcGlkZXItTWFuOkZhckZyb21Ib21l.mkv
  4. Format                      : Matroska
  5. Format version              : Version 4
  6. File size                   : 1.79 GiB
  7. Duration                    : 1 h 54 min
  8. Overall bit rate            : 2 239 kb/s
  9. Movie name                  : Spider-Man: Far From Home HD-TS / Spider-Man: Far From Home HD-TS
  10. Encoded date                : UTC 2019-07-09 08:39:25
  11. Writing application         : mkvmerge v30.1.0 ('Forever And More') 32-bit
  12. Writing library             : libebml v1.3.6 + libmatroska v1.4.9
  13. Copyright                   : Movies HDs 2019
  14. ARTIST                      : HarshLearner
  15.  
  16. Video
  17. ID                          : 1
  18. Format                      : AVC
  19. Format/Info                 : Advanced Video Codec
  20. Format profile              : Main@L3.1
  21. Format settings             : CABAC / 4 Ref Frames
  22. Format settings, CABAC      : Yes
  23. Format settings, ReFrames   : 4 frames
  24. Codec ID                    : V_MPEG4/ISO/AVC
  25. Duration                    : 1 h 52 min
  26. Bit rate                    : 2 006 kb/s
  27. Width                       : 1 280 pixels
  28. Height                      : 720 pixels
  29. Display aspect ratio        : 16:9
  30. Frame rate mode             : Constant
  31. Frame rate                  : 25.000 FPS
  32. Color space                 : YUV
  33. Chroma subsampling          : 4:2:0
  34. Bit depth                   : 8 bits
  35. Scan type                   : Progressive
  36. Bits/(Pixel*Frame)          : 0.087
  37. Stream size                 : 1.58 GiB (88%)
  38. Title                       : Spider-Man: Far From Home
  39. Default                     : Yes
  40. Forced                      : No
  41.  
  42. Audio
  43. ID                          : 2
  44. Format                      : AC-3
  45. Format/Info                 : Audio Coding 3
  46. Commercial name             : Dolby Digital
  47. Codec ID                    : A_AC3
  48. Duration                    : 1 h 54 min
  49. Bit rate mode               : Constant
  50. Bit rate                    : 256 kb/s
  51. Channel(s)                  : 2 channels
  52. Channel layout              : L R
  53. Sampling rate               : 48.0 kHz
  54. Frame rate                  : 31.250 FPS (1536 SPF)
  55. Bit depth                   : 16 bits
  56. Compression mode            : Lossy
  57. Stream size                 : 209 MiB (11%)
  58. Language                    : Spanish
  59. Service kind                : Complete Main
  60. Default                     : Yes
  61. Forced                      : Yes
RAW Paste Data
We use cookies for various purposes including analytics. By continuing to use Pastebin, you agree to our use of cookies as described in the Cookies Policy. OK, I Understand
 
Top