Guest User

Untitled

a guest
Dec 9th, 2017
402
Never
Not a member of Pastebin yet? Sign Up, it unlocks many cool features!
  1. General
  2. Unique ID : 252693915081881146973660452253998042514
  3.  
  4. (0xBE1B13E9867D34A0AEB81CA0CDFCCD92)
  5. Complete name : [Yamato yo Towa ni][BDRIP][1920x1080][H264_DTS-
  6.  
  7. HDMAx2].mkv
  8. Format : Matroska
  9. Format version : Version 4 / Version 2
  10. File size : 10.9 GiB
  11. Duration : 2 h 28 min
  12. Overall bit rate : 10.5 Mb/s
  13. Encoded date : UTC 2017-06-15 03:58:26
  14. Writing application : mkvmerge v11.0.0 ('Alive') 64bit
  15. Writing library : libebml v1.3.4 + libmatroska v1.4.5
  16.  
  17. Video
  18. ID : 1
  19. Format : AVC
  20. Format/Info : Advanced Video Codec
  21. Format profile : High@L4.1
  22. Format settings, CABAC : Yes
  23. Format settings, RefFrames : 4 frames
  24. Codec ID : V_MPEG4/ISO/AVC
  25. Duration : 2 h 28 min
  26. Bit rate : 8 500 kb/s
  27. Width : 1 920 pixels
  28. Height : 1 080 pixels
  29. Display aspect ratio : 16:9
  30. Frame rate mode : Constant
  31. Frame rate : 23.976 (24000/1001) FPS
  32. Color space : YUV
  33. Chroma subsampling : 4:2:0
  34. Bit depth : 8 bits
  35. Scan type : Progressive
  36. Bits/(Pixel*Frame) : 0.171
  37. Stream size : 8.81 GiB (81%)
  38. Writing library : x264 core 125 r2200 999b753
  39. Encoding settings : cabac=1 / ref=4 / deblock=1:-1:-1 / analyse=0x3:0x113 / me=umh /
  40.  
  41. subme=9 / psy=1 / psy_rd=1.00:0.00 / mixed_ref=1 / me_range=24 / chroma_me=1 / trellis=2 /
  42.  
  43. 8x8dct=1 / cqm=0 / deadzone=21,11 / fast_pskip=1 / chroma_qp_offset=-2 / threads=18 /
  44.  
  45. lookahead_threads=3 / sliced_threads=0 / nr=0 / decimate=1 / interlaced=0 / bluray_compat=0 /
  46.  
  47. constrained_intra=0 / bframes=3 / b_pyramid=0 / b_adapt=2 / b_bias=0 / direct=3 / weightb=1 /
  48.  
  49. open_gop=0 / weightp=2 / keyint=240 / keyint_min=23 / scenecut=40 / intra_refresh=0 /
  50.  
  51. rc_lookahead=50 / rc=2pass / mbtree=1 / bitrate=8500 / ratetol=1.0 / qcomp=0.60 / qpmin=10 /
  52.  
  53. qpmax=51 / qpstep=4 / cplxblur=20.0 / qblur=0.5 / vbv_maxrate=50000 / vbv_bufsize=50000 /
  54.  
  55. nal_hrd=none / ip_ratio=1.40 / aq=1:1.00
  56. Language : Japanese
  57. Default : Yes
  58. Forced : No
  59.  
  60. Audio #1
  61. ID : 2
  62. Format : DTS
  63. Format/Info : Digital Theater Systems
  64. Format profile : MA / Core
  65. Mode : 16
  66. Format settings, Endianness : Big
  67. Codec ID : A_DTS
  68. Duration : 2 h 28 min
  69. Bit rate mode : Variable / Constant
  70. Bit rate : 996 kb/s / 768 kb/s
  71. Channel(s) : 2 channels
  72. Channel positions : Front: L R
  73. Sampling rate : 48.0 kHz
  74. Frame rate : 93.750 FPS (512 SPF)
  75. Bit depth : 16 bits
  76. Compression mode : Lossless / Lossy
  77. Stream size : 1.03 GiB (9%)
  78. Title : Japanese DTS-HDMA Stereo
  79. Language : Japanese
  80. Default : Yes
  81. Forced : No
  82.  
  83. Audio #2
  84. ID : 3
  85. Format : DTS
  86. Format/Info : Digital Theater Systems
  87. Format profile : MA / Core
  88. Mode : 16
  89. Format settings, Endianness : Big
  90. Codec ID : A_DTS
  91. Duration : 2 h 28 min
  92. Bit rate mode : Variable / Constant
  93. Bit rate : 1 050 kb/s / 768 kb/s
  94. Channel(s) : 2 channels
  95. Channel positions : Front: L R
  96. Sampling rate : 48.0 kHz
  97. Frame rate : 93.750 FPS (512 SPF)
  98. Bit depth : 16 bits
  99. Compression mode : Lossless / Lossy
  100. Stream size : 1.09 GiB (10%)
  101. Title : Japanese DTS-HDMA Mono
  102. Language : Japanese
  103. Default : No
  104. Forced : No
  105.  
  106. Text
  107. ID : 4
  108. Format : ASS
  109. Codec ID : S_TEXT/ASS
  110. Codec ID/Info : Advanced Sub Station Alpha
  111. Duration : 2 h 27 min
  112. Bit rate : 68 b/s
  113. Count of elements : 1390
  114. Compression mode : Lossless
  115. Stream size : 74.3 KiB (0%)
  116. Title : English Subtitles (ASS)
  117. Language : English
  118. Default : Yes
  119. Forced : No
  120.  
  121. Menu
  122. 00:00:00.000 : en:Chapter 01
  123. 00:08:35.431 : en:Chapter 02
  124. 00:18:48.669 : en:Chapter 03
  125. 00:35:53.025 : en:Chapter 04
  126. 00:45:56.753 : en:Chapter 05
  127. 00:53:51.937 : en:Chapter 06
  128. 01:19:07.492 : en:Chapter 07
  129. 01:26:34.522 : en:Chapter 08
  130. 01:38:43.000 : en:Chapter 09
  131. 01:46:06.693 : en:Chapter 10
  132. 01:55:09.819 : en:Chapter 11
  133. 02:06:38.674 : en:Chapter 12
  134. 02:14:57.422 : en:Chapter 13
RAW Paste Data