Secasa

Untitled

Jul 18th, 2015
30
Never
Not a member of Pastebin yet? Sign Up, it unlocks many cool features!
  1. Format : Matroska
  2. Format version : Version 2
  3. File size : 4.41 GiB
  4. Duration : 1h 58mn
  5. Overall bit rate : 5 343 Kbps
  6. Encoded date : UTC 2015-07-17 12:43:27
  7. Writing application : mkvmerge v5.3.0 ('I could have danced') built on Feb 9 2012 10:38:07
  8. Writing library : libebml v1.2.3 + libmatroska v1.3.0
  9.  
  10. Video
  11. ID : 1
  12. Format : AVC
  13. Format/Info : Advanced Video Codec
  14. Format profile : High@L4
  15. Format settings, CABAC : Yes
  16. Format settings, ReFrames : 5 frames
  17. Codec ID : V_MPEG4/ISO/AVC
  18. Duration : 1h 58mn
  19. Bit rate : 4 469 Kbps
  20. Width : 1 920 pixels
  21. Height : 800 pixels
  22. Display aspect ratio : 2.40:1
  23. Frame rate mode : Constant
  24. Frame rate : 23.976 fps
  25. Color space : YUV
  26. Chroma subsampling : 4:2:0
  27. Bit depth : 8 bits
  28. Scan type : Progressive
  29. Bits/(Pixel*Frame) : 0.121
  30. Stream size : 3.69 GiB (84%)
  31. Language : Spanish
  32. Default : Yes
  33. Forced : No
  34. Color range : Limited
  35. Color primaries : BT.709
  36. Transfer characteristics : BT.709
  37. Matrix coefficients : BT.709
  38.  
  39. Audio #1
  40. ID : 2
  41. Format : AC-3
  42. Format/Info : Audio Coding 3
  43. Mode extension : CM (complete main)
  44. Format settings, Endianness : Big
  45. Codec ID : A_AC3
  46. Duration : 1h 58mn
  47. Bit rate mode : Constant
  48. Bit rate : 384 Kbps
  49. Channel(s) : 2 channels
  50. Channel positions : Front: L R
  51. Sampling rate : 48.0 KHz
  52. Compression mode : Lossy
  53. Stream size : 324 MiB (7%)
  54. Language : Spanish
  55. Default : Yes
  56. Forced : Yes
  57.  
  58. Audio #2
  59. ID : 3
  60. Format : AC-3
  61. Format/Info : Audio Coding 3
  62. Mode extension : CM (complete main)
  63. Format settings, Endianness : Big
  64. Codec ID : A_AC3
  65. Duration : 1h 58mn
  66. Bit rate mode : Constant
  67. Bit rate : 384 Kbps
  68. Channel(s) : 6 channels
  69. Channel positions : Front: L C R, Side: L R, LFE
  70. Sampling rate : 48.0 KHz
  71. Compression mode : Lossy
  72. Stream size : 324 MiB (7%)
  73. Language : English
  74. Default : No
  75. Forced : No
  76.  
  77. Text
  78. ID : 4
  79. Format : UTF-8
  80. Codec ID : S_TEXT/UTF8
  81. Codec ID/Info : UTF-8 Plain Text
  82. Language : Spanish
  83. Default : No
  84. Forced : No
  85.  
  86. Menu
  87. 00:00:00.000 : en:1
  88. 00:09:32.000 : en:2
  89. 00:19:07.000 : en:3
  90. 00:31:01.000 : en:4
  91. 00:40:52.000 : en:5
  92. 00:50:31.000 : en:6
  93. 00:59:40.000 : en:7
  94. 01:10:41.000 : en:8
  95. 01:19:35.000 : en:9
  96. 01:31:04.000 : en:10
  97. 01:40:24.000 : en:11
  98. 01:54:58.000 : en:12
RAW Paste Data

Adblocker detected! Please consider disabling it...

We've detected AdBlock Plus or some other adblocking software preventing Pastebin.com from fully loading.

We don't have any obnoxious sound, or popup ads, we actively block these annoying types of ads!

Please add Pastebin.com to your ad blocker whitelist or disable your adblocking software.

×