SHARE
TWEET

Untitled

a guest May 28th, 2014 237 Never
Not a member of Pastebin yet? Sign Up, it unlocks many cool features!
  1. Общее
  2. The.Occupants.2014.Blu.Ray.1080p.CINEMANIA.mkv
  3. Формат : Matroska
  4. Версия формата : Version 4 / Version 2
  5. Размер файла : 5,56 Гбайт
  6. Продолжительность : 1 ч. 18 м.
  7. Общий поток : 10,1 Мбит/сек
  8. Название фильма : Release Group CINEMANIA
  9. Дата кодирования : UTC 2014-05-28 12:18:30
  10. Программа кодирования : mkvmerge v6.9.1 ('Blue Panther') 64bit built on Apr 18 2014 18:23:38
  11. Библиотека кодирования : libebml v1.3.0 + libmatroska v1.4.1
  12.  
  13. Видео
  14. Идентификатор : 1
  15. Формат : AVC
  16. Формат/Информация : Advanced Video Codec
  17. Профиль формата : High@L4.1
  18. Параметр CABAC формата : Да
  19. Параметр ReFrames формата : 4 кадра
  20. Идентификатор кодека : V_MPEG4/ISO/AVC
  21. Продолжительность : 1 ч. 18 м.
  22. Битрейт : 8394 Кбит/сек
  23. Ширина : 1920 пикселей
  24. Высота : 1080 пикселей
  25. Соотношение сторон : 16:9
  26. Режим частоты кадров : Постоянный
  27. Частота кадров : 23,976 кадра/сек
  28. Цветовое пространство : YUV
  29. Субдискретизация насыщенности : 4:2:0
  30. Битовая глубина : 8 бит
  31. Тип развёртки : Прогрессивная
  32. Бит/(Пиксели*Кадры) : 0.169
  33. Размер потока : 4,51 Гбайт (81%)
  34. Заголовок : Release Group CINEMANIA
  35. Библиотека кодирования : x264 core 142 r2431 ac76440
  36. Настройки программы : cabac=1 / ref=4 / deblock=1:0:0 / analyse=0x3:0x113 / me=umh / subme=7 / psy=1 / psy_rd=1.00:0.00 / mixed_ref=1 / me_range=16 / chroma_me=1 / trellis=1 / 8x8dct=1 / cqm=0 / deadzone=21,11 / fast_pskip=0 / chroma_qp_offset=-2 / threads=12 / lookahead_threads=2 / sliced_threads=0 / nr=0 / decimate=1 / interlaced=0 / bluray_compat=0 / constrained_intra=0 / bframes=3 / b_pyramid=2 / b_adapt=2 / b_bias=0 / direct=3 / weightb=1 / open_gop=0 / weightp=2 / keyint=250 / keyint_min=23 / scenecut=40 / intra_refresh=0 / rc_lookahead=50 / rc=2pass / mbtree=1 / bitrate=8394 / ratetol=1.0 / qcomp=0.60 / qpmin=0 / qpmax=69 / qpstep=4 / cplxblur=20.0 / qblur=0.5 / ip_ratio=1.40 / aq=1:1.00
  37. Default : Да
  38. Forced : Нет
  39.  
  40. Аудио #1
  41. Идентификатор : 2
  42. Формат : AC-3
  43. Формат/Информация : Audio Coding 3
  44. Расширение режима : CM (complete main)
  45. Параметр Endianness формата : Big
  46. Идентификатор кодека : A_AC3
  47. Продолжительность : 1 ч. 18 м.
  48. Вид битрейта : Постоянный
  49. Битрейт : 192 Кбит/сек
  50. Каналы : 2 канала
  51. Расположение каналов : Front: L R
  52. Частота : 44,1 КГц
  53. Битовая глубина : 16 бит
  54. Метод сжатия : С потерями
  55. Размер потока : 108 Мбайт (2%)
  56. Заголовок : datynet
  57. Язык : Russian
  58. Default : Да
  59. Forced : Да
  60.  
  61. Аудио #2
  62. Идентификатор : 3
  63. Формат : DTS
  64. Формат/Информация : Digital Theater Systems
  65. Режим : 16
  66. Параметр Endianness формата : Big
  67. Идентификатор кодека : A_DTS
  68. Продолжительность : 1 ч. 18 м.
  69. Вид битрейта : Постоянный
  70. Битрейт : 1509 Кбит/сек
  71. Каналы : 6 каналов
  72. Расположение каналов : Front: L C R, Side: L R, LFE
  73. Частота : 48,0 КГц
  74. Битовая глубина : 24 бит
  75. Метод сжатия : С потерями
  76. Размер потока : 853 Мбайт (15%)
  77. Язык : English
  78. Default : Нет
  79. Forced : Нет
  80.  
  81. Текст
  82. Идентификатор : 4
  83. Формат : UTF-8
  84. Идентификатор кодека : S_TEXT/UTF8
  85. Идентификатор кодека/Информация : UTF-8 Plain Text
  86. Язык : English
  87. Default : Нет
  88. Forced : Нет
RAW Paste Data
We use cookies for various purposes including analytics. By continuing to use Pastebin, you agree to our use of cookies as described in the Cookies Policy. OK, I Understand
 
Top