SHARE
TWEET

Teen Titans Log

mhimranhossain97 Dec 4th, 2019 55 Never
Not a member of Pastebin yet? Sign Up, it unlocks many cool features!
  1. [12:24:44] gtkgui: HandBrake 1.2.1 (2019021900) - Linux x86_64 - https://handbrake.fr
  2. [12:24:44] hb_init: starting libhb thread
  3. [12:24:44] hb_init: starting libhb thread
  4. [12:24:44] hb_init: starting libhb thread
  5. [12:38:26] CPU: Intel(R) Pentium(R) CPU G4560 @ 3.50GHz
  6. [12:38:26]  - Intel microarchitecture Kaby Lake
  7. [12:38:26]  - logical processor count: 4
  8. [12:38:26] hb_scan: path=/home/mh/Misc/Teen.Titans.Go.Vs.Teen.Titans.2019.1080p.BluRay.Remux.AVC.DTS-HD.MA.5.1-ALiEN.mkv, title_index=0
  9. udfread ERROR: ECMA 167 Volume Recognition failed
  10. disc.c:323: failed opening UDF image /home/mh/Misc/Teen.Titans.Go.Vs.Teen.Titans.2019.1080p.BluRay.Remux.AVC.DTS-HD.MA.5.1-ALiEN.mkv
  11. disc.c:424: error opening file BDMV/index.bdmv
  12. disc.c:424: error opening file BDMV/BACKUP/index.bdmv
  13. [12:38:26] bd: not a bd - trying as a stream/file instead
  14. libdvdnav: Using dvdnav version 6.0.0
  15. libdvdread:DVDOpenFileUDF:UDFFindFile /VIDEO_TS/VIDEO_TS.IFO failed
  16. libdvdread:DVDOpenFileUDF:UDFFindFile /VIDEO_TS/VIDEO_TS.BUP failed
  17. libdvdread: Can't open file VIDEO_TS.IFO.
  18. libdvdnav: vm: failed to read VIDEO_TS.IFO
  19. [12:38:26] dvd: not a dvd - trying as a stream/file instead
  20. Input #0, matroska,webm, from '/home/mh/Misc/Teen.Titans.Go.Vs.Teen.Titans.2019.1080p.BluRay.Remux.AVC.DTS-HD.MA.5.1-ALiEN.mkv':
  21.   Metadata:
  22.     title           : Teen.Titans.Go.Vs.Teen.Titans.2019.1080p.BluRay.Remux.AVC.DTS-HD.MA.5.1-ALiEN
  23.     encoder         : libebml v1.3.9 + libmatroska v1.5.2
  24.     creation_time   : 2019-10-11T10:45:40.000000Z
  25.   Duration: 01:16:59.03, start: 0.000000, bitrate: 14419 kb/s
  26.     Chapter #0:0: start 0.000000, end 473.598000
  27.     Metadata:
  28.       title           : Chapter 1
  29.     Chapter #0:1: start 473.598000, end 818.484000
  30.     Metadata:
  31.       title           : Chapter 2
  32.     Chapter #0:2: start 818.484000, end 1282.239000
  33.     Metadata:
  34.       title           : Chapter 3
  35.     Chapter #0:3: start 1282.239000, end 1740.280000
  36.     Metadata:
  37.       title           : Chapter 4
  38.     Chapter #0:4: start 1740.280000, end 2233.481000
  39.     Metadata:
  40.       title           : Chapter 5
  41.     Chapter #0:5: start 2233.481000, end 2802.091000
  42.     Metadata:
  43.       title           : Chapter 6
  44.     Chapter #0:6: start 2802.091000, end 3224.847000
  45.     Metadata:
  46.       title           : Chapter 7
  47.     Chapter #0:7: start 3224.847000, end 3791.705000
  48.     Metadata:
  49.       title           : Chapter 8
  50.     Chapter #0:8: start 3791.705000, end 4417.246000
  51.     Metadata:
  52.       title           : Chapter 9
  53.     Chapter #0:9: start 4417.246000, end 4619.031000
  54.     Metadata:
  55.       title           : Chapter 10
  56.     Stream #0:0(eng): Video: h264 (High), yuv420p(progressive), 1920x1080 [SAR 1:1 DAR 16:9], 23.98 fps, 23.98 tbr, 1k tbn, 47.95 tbc (default)
  57.     Metadata:
  58.       title           : MPEG-4 AVC Video  /11997 kbps  / 1080p / 23.976 fps / 16:9 / High Profile 4.1
  59.       BPS-eng         : 11802058
  60.       DURATION-eng    : 01:16:59.031000000
  61.       NUMBER_OF_FRAMES-eng: 110746
  62.       NUMBER_OF_BYTES-eng: 6814259468
  63.       _STATISTICS_WRITING_APP-eng: mkvmerge v35.0.0 ('All The Love In The World') 64-bit
  64.       _STATISTICS_WRITING_DATE_UTC-eng: 2019-10-11 10:45:40
  65.       _STATISTICS_TAGS-eng: BPS DURATION NUMBER_OF_FRAMES NUMBER_OF_BYTES
  66.     Stream #0:1(eng): Audio: dts (DTS-HD MA), 48000 Hz, 5.1(side), s32p (24 bit) (default)
  67.     Metadata:
  68.       title           : DTS-HD Master Audio  /English/  2446 kbps/ 5.1 / 48 kHz / 2446 kbps / 24-bit (DTS Core: 5.1 / 48 kHz / 1509 kbps / 24-bit)
  69.       BPS-eng         : 2445737
  70.       DURATION-eng    : 01:16:58.998000000
  71.       NUMBER_OF_FRAMES-eng: 433031
  72.       NUMBER_OF_BYTES-eng: 1412107236
  73.       _STATISTICS_WRITING_APP-eng: mkvmerge v35.0.0 ('All The Love In The World') 64-bit
  74.       _STATISTICS_WRITING_DATE_UTC-eng: 2019-10-11 10:45:40
  75.       _STATISTICS_TAGS-eng: BPS DURATION NUMBER_OF_FRAMES NUMBER_OF_BYTES
  76.     Stream #0:2(eng): Subtitle: hdmv_pgs_subtitle
  77.     Metadata:
  78.       title           : SDH
  79.       BPS-eng         : 43960
  80.       DURATION-eng    : 01:16:24.789000000
  81.       NUMBER_OF_FRAMES-eng: 2702
  82.       NUMBER_OF_BYTES-eng: 25193694
  83.       _STATISTICS_WRITING_APP-eng: mkvmerge v35.0.0 ('All The Love In The World') 64-bit
  84.       _STATISTICS_WRITING_DATE_UTC-eng: 2019-10-11 10:45:40
  85.       _STATISTICS_TAGS-eng: BPS DURATION NUMBER_OF_FRAMES NUMBER_OF_BYTES
  86.     Stream #0:3(fre): Subtitle: hdmv_pgs_subtitle
  87.     Metadata:
  88.       BPS-eng         : 36269
  89.       DURATION-eng    : 01:16:23.537000000
  90.       NUMBER_OF_FRAMES-eng: 2312
  91.       NUMBER_OF_BYTES-eng: 20780143
  92.       _STATISTICS_WRITING_APP-eng: mkvmerge v35.0.0 ('All The Love In The World') 64-bit
  93.       _STATISTICS_WRITING_DATE_UTC-eng: 2019-10-11 10:45:40
  94.       _STATISTICS_TAGS-eng: BPS DURATION NUMBER_OF_FRAMES NUMBER_OF_BYTES
  95.     Stream #0:4(spa): Subtitle: hdmv_pgs_subtitle
  96.     Metadata:
  97.       BPS-eng         : 39444
  98.       DURATION-eng    : 01:16:23.537000000
  99.       NUMBER_OF_FRAMES-eng: 2308
  100.       NUMBER_OF_BYTES-eng: 22599692
  101.       _STATISTICS_WRITING_APP-eng: mkvmerge v35.0.0 ('All The Love In The World') 64-bit
  102.       _STATISTICS_WRITING_DATE_UTC-eng: 2019-10-11 10:45:40
  103.       _STATISTICS_TAGS-eng: BPS DURATION NUMBER_OF_FRAMES NUMBER_OF_BYTES
  104.     Stream #0:5(ger): Subtitle: hdmv_pgs_subtitle
  105.     Metadata:
  106.       BPS-eng         : 49543
  107.       DURATION-eng    : 01:16:24.789000000
  108.       NUMBER_OF_FRAMES-eng: 2752
  109.       NUMBER_OF_BYTES-eng: 28393305
  110.       _STATISTICS_WRITING_APP-eng: mkvmerge v35.0.0 ('All The Love In The World') 64-bit
  111.       _STATISTICS_WRITING_DATE_UTC-eng: 2019-10-11 10:45:40
  112.       _STATISTICS_TAGS-eng: BPS DURATION NUMBER_OF_FRAMES NUMBER_OF_BYTES
  113. [12:38:27] scan: decoding previews for title 1
  114. [12:38:27] scan: audio 0x1: dca, rate=48000Hz, bitrate=1 English (DTS-HD MA) (5.1 ch)
  115. [12:38:28] scan: 10 previews, 1920x1080, 23.976 fps, autocrop = 0/0/0/0, aspect 16:9, PAR 1:1
  116. [12:38:28] libhb: scan thread found 1 valid title(s)
  117. [13:04:15] 1 job(s) to process
  118. [13:04:15] json job:
  119. {
  120.     "Audio": {
  121.         "AudioList": [
  122.             {
  123.                 "Bitrate": 384,
  124.                 "CompressionLevel": -1.0,
  125.                 "DRC": 0.0,
  126.                 "DitherMethod": "auto",
  127.                 "Encoder": "ac3",
  128.                 "Gain": 0.0,
  129.                 "Mixdown": "5point1",
  130.                 "NormalizeMixLevel": false,
  131.                 "PresetEncoder": "av_aac",
  132.                 "Quality": -3.0,
  133.                 "Samplerate": 0,
  134.                 "Track": 0
  135.             }
  136.         ],
  137.         "CopyMask": [
  138.             "copy:aac"
  139.         ],
  140.         "FallbackEncoder": "av_aac"
  141.     },
  142.     "Destination": {
  143.         "AlignAVStart": false,
  144.         "ChapterList": [
  145.             {
  146.                 "Name": "Chapter 1"
  147.             },
  148.             {
  149.                 "Name": "Chapter 2"
  150.             },
  151.             {
  152.                 "Name": "Chapter 3"
  153.             },
  154.             {
  155.                 "Name": "Chapter 4"
  156.             },
  157.             {
  158.                 "Name": "Chapter 5"
  159.             },
  160.             {
  161.                 "Name": "Chapter 6"
  162.             },
  163.             {
  164.                 "Name": "Chapter 7"
  165.             },
  166.             {
  167.                 "Name": "Chapter 8"
  168.             },
  169.             {
  170.                 "Name": "Chapter 9"
  171.             },
  172.             {
  173.                 "Name": "Chapter 10"
  174.             }
  175.         ],
  176.         "ChapterMarkers": true,
  177.         "File": "/tmp/hb.23576/live01",
  178.         "InlineParameterSets": false,
  179.         "Mp4Options": {
  180.             "IpodAtom": false,
  181.             "Mp4Optimize": false
  182.         },
  183.         "Mux": "mkv"
  184.     },
  185.     "Filters": {
  186.         "FilterList": [
  187.             {
  188.                 "ID": 3,
  189.                 "Settings": {
  190.                     "block-height": "16",
  191.                     "block-thresh": "40",
  192.                     "block-width": "16",
  193.                     "filter-mode": "2",
  194.                     "mode": "3",
  195.                     "motion-thresh": "1",
  196.                     "spatial-metric": "2",
  197.                     "spatial-thresh": "1"
  198.                 }
  199.             },
  200.             {
  201.                 "ID": 4,
  202.                 "Settings": {
  203.                     "mode": "7"
  204.                 }
  205.             },
  206.             {
  207.                 "ID": 6,
  208.                 "Settings": {
  209.                     "mode": 1
  210.                 }
  211.             },
  212.             {
  213.                 "ID": 11,
  214.                 "Settings": {
  215.                     "crop-bottom": 0,
  216.                     "crop-left": 0,
  217.                     "crop-right": 0,
  218.                     "crop-top": 0,
  219.                     "height": 1080,
  220.                     "width": 1920
  221.                 }
  222.             }
  223.         ]
  224.     },
  225.     "Metadata": {
  226.         "Name": "Teen.Titans.Go.Vs.Teen.Titans.2019.1080p.BluRay.Remux.AVC.DTS-HD.MA.5.1-ALiEN"
  227.     },
  228.     "PAR": {
  229.         "Den": 1,
  230.         "Num": 1
  231.     },
  232.     "SequenceID": 0,
  233.     "Source": {
  234.         "Angle": 0,
  235.         "Path": "/home/mh/Misc/Teen.Titans.Go.Vs.Teen.Titans.2019.1080p.BluRay.Remux.AVC.DTS-HD.MA.5.1-ALiEN.mkv",
  236.         "Range": {
  237.             "End": 1350000,
  238.             "SeekPoints": 10,
  239.             "Start": 2,
  240.             "Type": "preview"
  241.         },
  242.         "Title": 1
  243.     },
  244.     "Subtitle": {
  245.         "Search": {
  246.             "Burn": true,
  247.             "Default": false,
  248.             "Enable": false,
  249.             "Forced": true
  250.         },
  251.         "SubtitleList": [
  252.             {
  253.                 "Burn": false,
  254.                 "Default": true,
  255.                 "Forced": false,
  256.                 "Offset": 0,
  257.                 "Track": 0
  258.             },
  259.             {
  260.                 "Burn": false,
  261.                 "Default": false,
  262.                 "Forced": false,
  263.                 "Offset": 0,
  264.                 "Track": 1
  265.             },
  266.             {
  267.                 "Burn": false,
  268.                 "Default": false,
  269.                 "Forced": false,
  270.                 "Offset": 0,
  271.                 "Track": 2
  272.             },
  273.             {
  274.                 "Burn": false,
  275.                 "Default": false,
  276.                 "Forced": false,
  277.                 "Offset": 0,
  278.                 "Track": 3
  279.             }
  280.         ]
  281.     },
  282.     "Video": {
  283.         "Bitrate": 6000,
  284.         "ColorMatrix": 1,
  285.         "ColorPrimaries": 1,
  286.         "ColorTransfer": 1,
  287.         "Encoder": "x265_10bit",
  288.         "Level": "auto",
  289.         "Options": "",
  290.         "Preset": "medium",
  291.         "Profile": "auto",
  292.         "QSV": {
  293.             "AsyncDepth": 4,
  294.             "Decode": false
  295.         },
  296.         "Tune": "",
  297.         "Turbo": true,
  298.         "TwoPass": true
  299.     }
  300. }
  301. [13:04:15] CPU: Intel(R) Pentium(R) CPU G4560 @ 3.50GHz
  302. [13:04:15]  - Intel microarchitecture Kaby Lake
  303. [13:04:15]  - logical processor count: 4
  304. [13:04:15] hb_scan: path=/home/mh/Misc/Teen.Titans.Go.Vs.Teen.Titans.2019.1080p.BluRay.Remux.AVC.DTS-HD.MA.5.1-ALiEN.mkv, title_index=1
  305. udfread ERROR: ECMA 167 Volume Recognition failed
  306. disc.c:323: failed opening UDF image /home/mh/Misc/Teen.Titans.Go.Vs.Teen.Titans.2019.1080p.BluRay.Remux.AVC.DTS-HD.MA.5.1-ALiEN.mkv
  307. disc.c:424: error opening file BDMV/index.bdmv
  308. disc.c:424: error opening file BDMV/BACKUP/index.bdmv
  309. [13:04:15] bd: not a bd - trying as a stream/file instead
  310. libdvdnav: Using dvdnav version 6.0.0
  311. libdvdread:DVDOpenFileUDF:UDFFindFile /VIDEO_TS/VIDEO_TS.IFO failed
  312. libdvdread:DVDOpenFileUDF:UDFFindFile /VIDEO_TS/VIDEO_TS.BUP failed
  313. libdvdread: Can't open file VIDEO_TS.IFO.
  314. libdvdnav: vm: failed to read VIDEO_TS.IFO
  315. [13:04:15] dvd: not a dvd - trying as a stream/file instead
  316. Input #0, matroska,webm, from '/home/mh/Misc/Teen.Titans.Go.Vs.Teen.Titans.2019.1080p.BluRay.Remux.AVC.DTS-HD.MA.5.1-ALiEN.mkv':
  317.   Metadata:
  318.     title           : Teen.Titans.Go.Vs.Teen.Titans.2019.1080p.BluRay.Remux.AVC.DTS-HD.MA.5.1-ALiEN
  319.     encoder         : libebml v1.3.9 + libmatroska v1.5.2
  320.     creation_time   : 2019-10-11T10:45:40.000000Z
  321.   Duration: 01:16:59.03, start: 0.000000, bitrate: 14419 kb/s
  322.     Chapter #0:0: start 0.000000, end 473.598000
  323.     Metadata:
  324.       title           : Chapter 1
  325.     Chapter #0:1: start 473.598000, end 818.484000
  326.     Metadata:
  327.       title           : Chapter 2
  328.     Chapter #0:2: start 818.484000, end 1282.239000
  329.     Metadata:
  330.       title           : Chapter 3
  331.     Chapter #0:3: start 1282.239000, end 1740.280000
  332.     Metadata:
  333.       title           : Chapter 4
  334.     Chapter #0:4: start 1740.280000, end 2233.481000
  335.     Metadata:
  336.       title           : Chapter 5
  337.     Chapter #0:5: start 2233.481000, end 2802.091000
  338.     Metadata:
  339.       title           : Chapter 6
  340.     Chapter #0:6: start 2802.091000, end 3224.847000
  341.     Metadata:
  342.       title           : Chapter 7
  343.     Chapter #0:7: start 3224.847000, end 3791.705000
  344.     Metadata:
  345.       title           : Chapter 8
  346.     Chapter #0:8: start 3791.705000, end 4417.246000
  347.     Metadata:
  348.       title           : Chapter 9
  349.     Chapter #0:9: start 4417.246000, end 4619.031000
  350.     Metadata:
  351.       title           : Chapter 10
  352.     Stream #0:0(eng): Video: h264 (High), yuv420p(progressive), 1920x1080 [SAR 1:1 DAR 16:9], 23.98 fps, 23.98 tbr, 1k tbn, 47.95 tbc (default)
  353.     Metadata:
  354.       title           : MPEG-4 AVC Video  /11997 kbps  / 1080p / 23.976 fps / 16:9 / High Profile 4.1
  355.       BPS-eng         : 11802058
  356.       DURATION-eng    : 01:16:59.031000000
  357.       NUMBER_OF_FRAMES-eng: 110746
  358.       NUMBER_OF_BYTES-eng: 6814259468
  359.       _STATISTICS_WRITING_APP-eng: mkvmerge v35.0.0 ('All The Love In The World') 64-bit
  360.       _STATISTICS_WRITING_DATE_UTC-eng: 2019-10-11 10:45:40
  361.       _STATISTICS_TAGS-eng: BPS DURATION NUMBER_OF_FRAMES NUMBER_OF_BYTES
  362.     Stream #0:1(eng): Audio: dts (DTS-HD MA), 48000 Hz, 5.1(side), s32p (24 bit) (default)
  363.     Metadata:
  364.       title           : DTS-HD Master Audio  /English/  2446 kbps/ 5.1 / 48 kHz / 2446 kbps / 24-bit (DTS Core: 5.1 / 48 kHz / 1509 kbps / 24-bit)
  365.       BPS-eng         : 2445737
  366.       DURATION-eng    : 01:16:58.998000000
  367.       NUMBER_OF_FRAMES-eng: 433031
  368.       NUMBER_OF_BYTES-eng: 1412107236
  369.       _STATISTICS_WRITING_APP-eng: mkvmerge v35.0.0 ('All The Love In The World') 64-bit
  370.       _STATISTICS_WRITING_DATE_UTC-eng: 2019-10-11 10:45:40
  371.       _STATISTICS_TAGS-eng: BPS DURATION NUMBER_OF_FRAMES NUMBER_OF_BYTES
  372.     Stream #0:2(eng): Subtitle: hdmv_pgs_subtitle
  373.     Metadata:
  374.       title           : SDH
  375.       BPS-eng         : 43960
  376.       DURATION-eng    : 01:16:24.789000000
  377.       NUMBER_OF_FRAMES-eng: 2702
  378.       NUMBER_OF_BYTES-eng: 25193694
  379.       _STATISTICS_WRITING_APP-eng: mkvmerge v35.0.0 ('All The Love In The World') 64-bit
  380.       _STATISTICS_WRITING_DATE_UTC-eng: 2019-10-11 10:45:40
  381.       _STATISTICS_TAGS-eng: BPS DURATION NUMBER_OF_FRAMES NUMBER_OF_BYTES
  382.     Stream #0:3(fre): Subtitle: hdmv_pgs_subtitle
  383.     Metadata:
  384.       BPS-eng         : 36269
  385.       DURATION-eng    : 01:16:23.537000000
  386.       NUMBER_OF_FRAMES-eng: 2312
  387.       NUMBER_OF_BYTES-eng: 20780143
  388.       _STATISTICS_WRITING_APP-eng: mkvmerge v35.0.0 ('All The Love In The World') 64-bit
  389.       _STATISTICS_WRITING_DATE_UTC-eng: 2019-10-11 10:45:40
  390.       _STATISTICS_TAGS-eng: BPS DURATION NUMBER_OF_FRAMES NUMBER_OF_BYTES
  391.     Stream #0:4(spa): Subtitle: hdmv_pgs_subtitle
  392.     Metadata:
  393.       BPS-eng         : 39444
  394.       DURATION-eng    : 01:16:23.537000000
  395.       NUMBER_OF_FRAMES-eng: 2308
  396.       NUMBER_OF_BYTES-eng: 22599692
  397.       _STATISTICS_WRITING_APP-eng: mkvmerge v35.0.0 ('All The Love In The World') 64-bit
  398.       _STATISTICS_WRITING_DATE_UTC-eng: 2019-10-11 10:45:40
  399.       _STATISTICS_TAGS-eng: BPS DURATION NUMBER_OF_FRAMES NUMBER_OF_BYTES
  400.     Stream #0:5(ger): Subtitle: hdmv_pgs_subtitle
  401.     Metadata:
  402.       BPS-eng         : 49543
  403.       DURATION-eng    : 01:16:24.789000000
  404.       NUMBER_OF_FRAMES-eng: 2752
  405.       NUMBER_OF_BYTES-eng: 28393305
  406.       _STATISTICS_WRITING_APP-eng: mkvmerge v35.0.0 ('All The Love In The World') 64-bit
  407.       _STATISTICS_WRITING_DATE_UTC-eng: 2019-10-11 10:45:40
  408.       _STATISTICS_TAGS-eng: BPS DURATION NUMBER_OF_FRAMES NUMBER_OF_BYTES
  409. [13:04:15] scan: decoding previews for title 1
  410. [13:04:15] scan: audio 0x1: dca, rate=48000Hz, bitrate=1 English (DTS-HD MA) (5.1 ch)
  411. [13:04:16] scan: 10 previews, 1920x1080, 23.976 fps, autocrop = 0/0/0/0, aspect 16:9, PAR 1:1
  412. [13:04:16] libhb: scan thread found 1 valid title(s)
  413. [13:04:16] starting job
  414. [13:04:16] decomb filter thread started for segment 0
  415. [13:04:16] decomb filter thread started for segment 1
  416. [13:04:16] decomb filter thread started for segment 2
  417. [13:04:16] decomb filter thread started for segment 3
  418. [13:04:16] decomb check thread started for segment 0
  419. [13:04:16] decomb check thread started for segment 1
  420. [13:04:16] decomb check thread started for segment 3
  421. [13:04:16] decomb check thread started for segment 2
  422. [13:04:16] mask filter thread started for segment 0
  423. [13:04:16] mask filter thread started for segment 1
  424. [13:04:16] mask filter thread started for segment 2
  425. [13:04:16] mask filter thread started for segment 3
  426. [13:04:16] mask erode thread started for segment 0
  427. [13:04:16] mask erode thread started for segment 1
  428. [13:04:16] mask erode thread started for segment 2
  429. [13:04:16] mask erode thread started for segment 3
  430. [13:04:16] mask dilate thread started for segment 0
  431. [13:04:16] mask dilate thread started for segment 1
  432. [13:04:16] mask dilate thread started for segment 2
  433. [13:04:16] mask dilate thread started for segment 3
  434. [13:04:16] yadif thread started for segment 0
  435. [13:04:16] yadif thread started for segment 1
  436. [13:04:16] yadif thread started for segment 2
  437. [13:04:16] yadif thread started for segment 3
  438. [13:04:16] job configuration:
  439. [13:04:16]  * source
  440. [13:04:16]    + /home/mh/Misc/Teen.Titans.Go.Vs.Teen.Titans.2019.1080p.BluRay.Remux.AVC.DTS-HD.MA.5.1-ALiEN.mkv
  441. [13:04:16]    + title 1, start 00:00:0.00 stop 00:00:15.00
  442. [13:04:16]    + container: matroska,webm
  443. [13:04:16]    + data rate: 14419 kbps
  444. [13:04:16]  * destination
  445. [13:04:16]    + /tmp/hb.23576/live01
  446. [13:04:16]    + container: Matroska (libavformat)
  447. [13:04:16]      + chapter markers
  448. [13:04:16]  * video track
  449. [13:04:16]    + decoder: h264
  450. [13:04:16]    + filters
  451. [13:04:16]      + Comb Detect (mode=3:spatial-metric=2:motion-thresh=1:spatial-thresh=1:filter-mode=2:block-thresh=40:block-width=16:block-height=16)
  452. [13:04:16]      + Decomb (mode=39)
  453. [13:04:16]      + Framerate Shaper (mode=1)
  454. [13:04:16]        + frame rate: 23.976 fps -> constant 23.976 fps
  455. [13:04:16]      + Crop and Scale (width=1920:height=1080:crop-top=0:crop-bottom=0:crop-left=0:crop-right=0)
  456. [13:04:16]        + source: 1920 * 1080, crop (0/0/0/0): 1920 * 1080, scale: 1920 * 1080
  457. [13:04:16]    + Output geometry
  458. [13:04:16]      + storage dimensions: 1920 x 1080
  459. [13:04:16]      + pixel aspect ratio: 1 : 1
  460. [13:04:16]      + display dimensions: 1920 x 1080
  461. [13:04:16]    + encoder: H.265 10-bit (libx265)
  462. [13:04:16]      + preset:  medium
  463. [13:04:16]      + profile: auto
  464. [13:04:16]      + bitrate: 6000 kbps, pass: 1
  465. [13:04:16]      + fast first pass
  466. [13:04:16]      + color profile: 1-1-1
  467. [13:04:16]  * subtitle track 1, English [PGS] (track 0, id 0x2, Picture) -> Passthrough, Default
  468. [13:04:16]  * subtitle track 2, Francais [PGS] (track 1, id 0x3, Picture) -> Passthrough
  469. [13:04:16]  * subtitle track 3, español [PGS] (track 2, id 0x4, Picture) -> Passthrough
  470. [13:04:16]  * subtitle track 4, Deutsch [PGS] (track 3, id 0x5, Picture) -> Passthrough
  471. [13:04:16]  * audio track 1
  472. [13:04:16]    + decoder: English (DTS-HD MA) (5.1 ch) (track 1, id 0x1)
  473. [13:04:16]      + samplerate: 48000 Hz
  474. [13:04:16]    + mixdown: 5.1 Channels
  475. [13:04:16]    + dither: triangular
  476. [13:04:16]    + encoder: AC3 (libavcodec)
  477. [13:04:16]      + bitrate: 384 kbps, samplerate: 48000 Hz
  478. [13:04:16] sync: expecting 383 video frames
  479. x265 [info]: HEVC encoder version 2.9
  480. x265 [info]: build info [Linux][GCC 7.3.0][64 bit] 10bit
  481. x265 [info]: using cpu capabilities: MMX2 SSE2Fast LZCNT SSSE3 SSE4.2
  482. x265 [info]: Main 10 profile, Level-4 (Main tier)
  483. x265 [info]: Thread pool created using 4 threads
  484. x265 [info]: Slices                              : 1
  485. x265 [info]: frame threads / pool features       : 2 / wpp(17 rows)
  486. x265 [info]: Coding QT: max CU size, min CU size : 64 / 8
  487. x265 [info]: Residual QT: max TU size, max depth : 32 / 1 inter / 1 intra
  488. x265 [info]: ME / range / subpel / merge         : dia / 57 / 2 / 1
  489. x265 [info]: Keyframe min / max / scenecut / bias: 24 / 240 / 40 / 5.00
  490. x265 [info]: Lookahead / bframes / badapt        : 20 / 4 / 2
  491. x265 [info]: b-pyramid / weightp / weightb       : 1 / 1 / 0
  492. x265 [info]: References / ref-limit  cu / depth  : 1 / on / on
  493. x265 [info]: AQ: mode / str / qg-size / cu-tree  : 1 / 1.0 / 32 / 1
  494. x265 [info]: Rate Control / qCompress            : ABR-6000 kbps / 0.60
  495. x265 [info]: tools: rd=2 psy-rd=2.00 early-skip rskip signhide tmvp fast-intra
  496. x265 [info]: tools: strong-intra-smoothing lslices=6 deblock sao stats-write
  497. [13:04:17] sync: first pts video is 0
  498. [13:04:17] sync: "Chapter 1" (1) at frame 1 time 0
  499. [13:04:17] sync: first pts audio 0x1 is 270
  500. [13:04:18] sync: first pts subtitle 0x2 is 221490
  501. [13:04:18] sync: first pts subtitle 0x3 is 221490
  502. [13:04:18] sync: first pts subtitle 0x4 is 221490
  503. [13:04:18] sync: first pts subtitle 0x5 is 221490
  504. [13:04:53] sync: reached audio 0x1 pts 1350030, exiting early
  505. [13:04:54] sync: reached video pts 1351350, exiting early
  506. [13:05:10] work: average encoding speed for job is 9.610971 fps
  507. [13:05:10] comb detect: heavy 0 | light 3 | uncombed 357 | total 360
  508. [13:05:10] decomb: deinterlaced 0 | blended 3 | unfiltered 357 | total 360
  509. [13:05:10] vfr: 360 frames output, 0 dropped and 0 duped for CFR/PFR
  510. [13:05:10] vfr: lost time: 0 (0 frames)
  511. [13:05:10] vfr: gained time: 0 (0 frames) (0 not accounted for)
  512. [13:05:10] dca-decoder done: 9764 frames, 0 decoder errors
  513. [13:05:10] h264-decoder done: 2481 frames, 0 decoder errors
  514. [13:05:10] sync: got 360 frames, 383 expected
  515. [13:05:10] sync: framerate min 23.981 fps, max 23.981 fps, avg 23.976 fps
  516. x265 [info]: frame I:     12, Avg QP:9.28  kb/s: 23370.60
  517. x265 [info]: frame P:    114, Avg QP:8.61  kb/s: 12369.80
  518. x265 [info]: frame B:    234, Avg QP:14.17  kb/s: 2173.65
  519. x265 [info]: Weighted P-Frames: Y:9.6% UV:7.9%
  520. x265 [info]: consecutive B-frames: 34.9% 6.3% 14.3% 27.0% 17.5%
  521.  
  522. encoded 360 frames in 53.85s (6.68 fps), 6109.00 kb/s, Avg QP:12.25
  523. [13:05:10] starting job
  524. [13:05:10] decomb filter thread started for segment 0
  525. [13:05:10] decomb filter thread started for segment 1
  526. [13:05:10] decomb filter thread started for segment 3
  527. [13:05:10] decomb check thread started for segment 1
  528. [13:05:10] decomb check thread started for segment 2
  529. [13:05:10] decomb check thread started for segment 3
  530. [13:05:10] mask filter thread started for segment 0
  531. [13:05:10] mask filter thread started for segment 1
  532. [13:05:10] mask filter thread started for segment 2
  533. [13:05:10] mask filter thread started for segment 3
  534. [13:05:10] mask erode thread started for segment 0
  535. [13:05:10] mask erode thread started for segment 1
  536. [13:05:10] mask erode thread started for segment 2
  537. [13:05:10] mask erode thread started for segment 3
  538. [13:05:10] mask dilate thread started for segment 0
  539. [13:05:10] mask dilate thread started for segment 1
  540. [13:05:10] mask dilate thread started for segment 2
  541. [13:05:10] mask dilate thread started for segment 3
  542. [13:05:10] yadif thread started for segment 0
  543. [13:05:10] yadif thread started for segment 1
  544. [13:05:10] yadif thread started for segment 2
  545. [13:05:10] yadif thread started for segment 3
  546. [13:05:10] job configuration:
  547. [13:05:10]  * source
  548. [13:05:10]    + /home/mh/Misc/Teen.Titans.Go.Vs.Teen.Titans.2019.1080p.BluRay.Remux.AVC.DTS-HD.MA.5.1-ALiEN.mkv
  549. [13:05:10]    + title 1, start 00:00:0.00 stop 00:00:15.00
  550. [13:05:10]    + container: matroska,webm
  551. [13:05:10]    + data rate: 14419 kbps
  552. [13:05:10]  * destination
  553. [13:05:10]    + /tmp/hb.23576/live01
  554. [13:05:10]    + container: Matroska (libavformat)
  555. [13:05:10]      + chapter markers
  556. [13:05:10]  * video track
  557. [13:05:10]    + decoder: h264
  558. [13:05:10]    + filters
  559. [13:05:10]      + Comb Detect (mode=3:spatial-metric=2:motion-thresh=1:spatial-thresh=1:filter-mode=2:block-thresh=40:block-width=16:block-height=16)
  560. [13:05:10]      + Decomb (mode=39)
  561. [13:05:10]      + Framerate Shaper (mode=1)
  562. [13:05:10]        + frame rate: 23.976 fps -> constant 23.976 fps
  563. [13:05:10]      + Crop and Scale (width=1920:height=1080:crop-top=0:crop-bottom=0:crop-left=0:crop-right=0)
  564. [13:05:10]        + source: 1920 * 1080, crop (0/0/0/0): 1920 * 1080, scale: 1920 * 1080
  565. [13:05:10]    + Output geometry
  566. [13:05:10]      + storage dimensions: 1920 x 1080
  567. [13:05:10]      + pixel aspect ratio: 1 : 1
  568. [13:05:10]      + display dimensions: 1920 x 1080
  569. [13:05:10]    + encoder: H.265 10-bit (libx265)
  570. [13:05:10] decomb filter thread started for segment 2
  571. [13:05:10]      + preset:  medium
  572. [13:05:10] decomb check thread started for segment 0
  573. [13:05:10]      + profile: auto
  574. [13:05:10]      + bitrate: 6000 kbps, pass: 2
  575. [13:05:10]      + color profile: 1-1-1
  576. [13:05:10]  * subtitle track 1, English [PGS] (track 0, id 0x2, Picture) -> Passthrough, Default
  577. [13:05:10]  * subtitle track 2, Francais [PGS] (track 1, id 0x3, Picture) -> Passthrough
  578. [13:05:10]  * subtitle track 3, español [PGS] (track 2, id 0x4, Picture) -> Passthrough
  579. [13:05:10]  * subtitle track 4, Deutsch [PGS] (track 3, id 0x5, Picture) -> Passthrough
  580. [13:05:10]  * audio track 1
  581. [13:05:10]    + decoder: English (DTS-HD MA) (5.1 ch) (track 1, id 0x1)
  582. [13:05:10]      + samplerate: 48000 Hz
  583. [13:05:10]    + mixdown: 5.1 Channels
  584. [13:05:10]    + dither: triangular
  585. [13:05:10]    + encoder: AC3 (libavcodec)
  586. [13:05:10]      + bitrate: 384 kbps, samplerate: 48000 Hz
  587. [13:05:11] sync: expecting 360 video frames
  588. x265 [info]: HEVC encoder version 2.9
  589. x265 [info]: build info [Linux][GCC 7.3.0][64 bit] 10bit
  590. x265 [info]: using cpu capabilities: MMX2 SSE2Fast LZCNT SSSE3 SSE4.2
  591. x265 [info]: Main 10 profile, Level-4 (Main tier)
  592. x265 [info]: Thread pool created using 4 threads
  593. x265 [info]: Slices                              : 1
  594. x265 [info]: frame threads / pool features       : 2 / wpp(17 rows)
  595. x265 [info]: Coding QT: max CU size, min CU size : 64 / 8
  596. x265 [info]: Residual QT: max TU size, max depth : 32 / 1 inter / 1 intra
  597. x265 [info]: ME / range / subpel / merge         : hex / 57 / 2 / 2
  598. x265 [info]: Keyframe min / max / scenecut / bias: 24 / 240 / 40 / 5.00
  599. x265 [info]: Lookahead / bframes / badapt        : 20 / 4 / 2
  600. x265 [info]: b-pyramid / weightp / weightb       : 1 / 1 / 0
  601. x265 [info]: References / ref-limit  cu / depth  : 3 / on / on
  602. x265 [info]: AQ: mode / str / qg-size / cu-tree  : 1 / 1.0 / 32 / 1
  603. x265 [info]: Rate Control / qCompress            : ABR-6000 kbps / 0.60
  604. x265 [info]: tools: rd=3 psy-rd=2.00 rskip signhide tmvp strong-intra-smoothing
  605. x265 [info]: tools: lslices=6 deblock sao stats-read
  606. [13:05:11] sync: first pts video is 0
  607. [13:05:11] sync: "Chapter 1" (1) at frame 1 time 0
  608. [13:05:11] sync: first pts audio 0x1 is 270
  609. [13:05:12] sync: first pts subtitle 0x2 is 221490
  610. [13:05:12] sync: first pts subtitle 0x3 is 221490
  611. [13:05:12] sync: first pts subtitle 0x4 is 221490
  612. [13:05:12] sync: first pts subtitle 0x5 is 221490
  613. [13:05:29] work: average encoding speed for job is 9.012876 fps
  614. [13:05:29] comb detect: heavy 0 | light 2 | uncombed 138 | total 140
  615. [13:05:30] decomb: deinterlaced 0 | blended 2 | unfiltered 130 | total 132
  616. [13:05:30] vfr: 123 frames output, 0 dropped and 0 duped for CFR/PFR
  617. [13:05:30] vfr: lost time: 0 (0 frames)
  618. [13:05:30] vfr: gained time: 0 (0 frames) (0 not accounted for)
  619. [13:05:30] dca-decoder done: 892 frames, 0 decoder errors
  620. [13:05:30] h264-decoder done: 211 frames, 0 decoder errors
  621. [13:05:30] sync: got 170 frames, 360 expected
  622. [13:05:30] sync: framerate min 23.981 fps, max 23.981 fps, avg 23.976 fps
  623. x265 [info]: frame I:      4, Avg QP:9.28  kb/s: 19423.36
  624. x265 [info]: frame P:     29, Avg QP:9.32  kb/s: 8821.17
  625. x265 [info]: frame B:     52, Avg QP:14.02  kb/s: 2169.21
  626. x265 [info]: Weighted P-Frames: Y:27.6% UV:20.7%
  627. x265 [info]: consecutive B-frames: 44.4% 2.8% 19.4% 8.3% 25.0%
  628.  
  629. encoded 85 frames in 19.24s (4.42 fps), 5250.66 kb/s, Avg QP:12.20
  630. [13:05:30] mux: track 0, 84 frames, 2197614 bytes, 2368.09 kbps, fifo 128
  631. [13:05:30] mux: track 1, 231 frames, 354816 bytes, 382.34 kbps, fifo 256
  632. [13:05:30] mux: track 2, 4 frames, 18738 bytes, 20.19 kbps, fifo 8
  633. [13:05:30] mux: track 3, 2 frames, 5410 bytes, 5.83 kbps, fifo 8
  634. [13:05:30] mux: track 4, 2 frames, 6340 bytes, 6.83 kbps, fifo 8
  635. [13:05:30] mux: track 5, 4 frames, 15917 bytes, 17.15 kbps, fifo 8
  636. [13:05:30] libhb: work result = 1
  637. [13:22:53] gtkgui: Modified Preset: /Matroska/H.265 MKV 1080p30
  638. [13:22:53] 1 job(s) to process
  639. [13:22:53] json job:
  640. {
  641.     "Audio": {
  642.         "AudioList": [
  643.             {
  644.                 "Bitrate": 384,
  645.                 "CompressionLevel": -1.0,
  646.                 "DRC": 0.0,
  647.                 "DitherMethod": "auto",
  648.                 "Encoder": "ac3",
  649.                 "Gain": 0.0,
  650.                 "Mixdown": "5point1",
  651.                 "NormalizeMixLevel": false,
  652.                 "PresetEncoder": "av_aac",
  653.                 "Quality": -3.0,
  654.                 "Samplerate": 0,
  655.                 "Track": 0
  656.             }
  657.         ],
  658.         "CopyMask": [
  659.             "copy:aac"
  660.         ],
  661.         "FallbackEncoder": "av_aac"
  662.     },
  663.     "Destination": {
  664.         "AlignAVStart": false,
  665.         "ChapterList": [
  666.             {
  667.                 "Name": "Chapter 1"
  668.             },
  669.             {
  670.                 "Name": "Chapter 2"
  671.             },
  672.             {
  673.                 "Name": "Chapter 3"
  674.             },
  675.             {
  676.                 "Name": "Chapter 4"
  677.             },
  678.             {
  679.                 "Name": "Chapter 5"
  680.             },
  681.             {
  682.                 "Name": "Chapter 6"
  683.             },
  684.             {
  685.                 "Name": "Chapter 7"
  686.             },
  687.             {
  688.                 "Name": "Chapter 8"
  689.             },
  690.             {
  691.                 "Name": "Chapter 9"
  692.             },
  693.             {
  694.                 "Name": "Chapter 10"
  695.             }
  696.         ],
  697.         "ChapterMarkers": false,
  698.         "File": "/home/mh/Mult/Encode/Teen Titans Go Vs Teen Titans 2019 1080p BluRay 10-Bit AC3 5.1 x265 - ElPro.mkv",
  699.         "InlineParameterSets": false,
  700.         "Mp4Options": {
  701.             "IpodAtom": false,
  702.             "Mp4Optimize": false
  703.         },
  704.         "Mux": "mkv"
  705.     },
  706.     "Filters": {
  707.         "FilterList": [
  708.             {
  709.                 "ID": 3,
  710.                 "Settings": {
  711.                     "block-height": "16",
  712.                     "block-thresh": "40",
  713.                     "block-width": "16",
  714.                     "filter-mode": "2",
  715.                     "mode": "3",
  716.                     "motion-thresh": "1",
  717.                     "spatial-metric": "2",
  718.                     "spatial-thresh": "1"
  719.                 }
  720.             },
  721.             {
  722.                 "ID": 4,
  723.                 "Settings": {
  724.                     "mode": "7"
  725.                 }
  726.             },
  727.             {
  728.                 "ID": 6,
  729.                 "Settings": {
  730.                     "mode": 1
  731.                 }
  732.             },
  733.             {
  734.                 "ID": 11,
  735.                 "Settings": {
  736.                     "crop-bottom": 0,
  737.                     "crop-left": 0,
  738.                     "crop-right": 0,
  739.                     "crop-top": 0,
  740.                     "height": 1080,
  741.                     "width": 1920
  742.                 }
  743.             }
  744.         ]
  745.     },
  746.     "Metadata": {
  747.         "LongDescription": "",
  748.         "Name": "Teen Titans Go Vs Teen Titans 2019 1080p BluRay 10-Bit AC3 5.1 x265 - ElPro"
  749.     },
  750.     "PAR": {
  751.         "Den": 1,
  752.         "Num": 1
  753.     },
  754.     "SequenceID": 0,
  755.     "Source": {
  756.         "Angle": 0,
  757.         "Path": "/home/mh/Misc/Teen.Titans.Go.Vs.Teen.Titans.2019.1080p.BluRay.Remux.AVC.DTS-HD.MA.5.1-ALiEN.mkv",
  758.         "Range": {
  759.             "End": 10,
  760.             "Start": 1,
  761.             "Type": "chapter"
  762.         },
  763.         "Title": 1
  764.     },
  765.     "Subtitle": {
  766.         "Search": {
  767.             "Burn": true,
  768.             "Default": false,
  769.             "Enable": false,
  770.             "Forced": true
  771.         },
  772.         "SubtitleList": [
  773.             {
  774.                 "Burn": false,
  775.                 "Default": true,
  776.                 "Forced": false,
  777.                 "Offset": 0,
  778.                 "Track": 0
  779.             },
  780.             {
  781.                 "Burn": false,
  782.                 "Default": false,
  783.                 "Forced": false,
  784.                 "Offset": 0,
  785.                 "Track": 1
  786.             },
  787.             {
  788.                 "Burn": false,
  789.                 "Default": false,
  790.                 "Forced": false,
  791.                 "Offset": 0,
  792.                 "Track": 2
  793.             },
  794.             {
  795.                 "Burn": false,
  796.                 "Default": false,
  797.                 "Forced": false,
  798.                 "Offset": 0,
  799.                 "Track": 3
  800.             }
  801.         ]
  802.     },
  803.     "Video": {
  804.         "Bitrate": 2600,
  805.         "ColorMatrix": 1,
  806.         "ColorPrimaries": 1,
  807.         "ColorTransfer": 1,
  808.         "Encoder": "x265_10bit",
  809.         "Level": "auto",
  810.         "Options": "",
  811.         "Preset": "medium",
  812.         "Profile": "auto",
  813.         "QSV": {
  814.             "AsyncDepth": 4,
  815.             "Decode": false
  816.         },
  817.         "Tune": "",
  818.         "Turbo": true,
  819.         "TwoPass": true
  820.     }
  821. }
  822. [13:22:53] CPU: Intel(R) Pentium(R) CPU G4560 @ 3.50GHz
  823. [13:22:53]  - Intel microarchitecture Kaby Lake
  824. [13:22:53]  - logical processor count: 4
  825. [13:22:53] hb_scan: path=/home/mh/Misc/Teen.Titans.Go.Vs.Teen.Titans.2019.1080p.BluRay.Remux.AVC.DTS-HD.MA.5.1-ALiEN.mkv, title_index=1
  826. udfread ERROR: ECMA 167 Volume Recognition failed
  827. disc.c:323: failed opening UDF image /home/mh/Misc/Teen.Titans.Go.Vs.Teen.Titans.2019.1080p.BluRay.Remux.AVC.DTS-HD.MA.5.1-ALiEN.mkv
  828. disc.c:424: error opening file BDMV/index.bdmv
  829. disc.c:424: error opening file BDMV/BACKUP/index.bdmv
  830. [13:22:53] bd: not a bd - trying as a stream/file instead
  831. libdvdnav: Using dvdnav version 6.0.0
  832. libdvdread:DVDOpenFileUDF:UDFFindFile /VIDEO_TS/VIDEO_TS.IFO failed
  833. libdvdread:DVDOpenFileUDF:UDFFindFile /VIDEO_TS/VIDEO_TS.BUP failed
  834. libdvdread: Can't open file VIDEO_TS.IFO.
  835. libdvdnav: vm: failed to read VIDEO_TS.IFO
  836. [13:22:53] dvd: not a dvd - trying as a stream/file instead
  837. Input #0, matroska,webm, from '/home/mh/Misc/Teen.Titans.Go.Vs.Teen.Titans.2019.1080p.BluRay.Remux.AVC.DTS-HD.MA.5.1-ALiEN.mkv':
  838.   Metadata:
  839.     title           : Teen.Titans.Go.Vs.Teen.Titans.2019.1080p.BluRay.Remux.AVC.DTS-HD.MA.5.1-ALiEN
  840.     encoder         : libebml v1.3.9 + libmatroska v1.5.2
  841.     creation_time   : 2019-10-11T10:45:40.000000Z
  842.   Duration: 01:16:59.03, start: 0.000000, bitrate: 14419 kb/s
  843.     Chapter #0:0: start 0.000000, end 473.598000
  844.     Metadata:
  845.       title           : Chapter 1
  846.     Chapter #0:1: start 473.598000, end 818.484000
  847.     Metadata:
  848.       title           : Chapter 2
  849.     Chapter #0:2: start 818.484000, end 1282.239000
  850.     Metadata:
  851.       title           : Chapter 3
  852.     Chapter #0:3: start 1282.239000, end 1740.280000
  853.     Metadata:
  854.       title           : Chapter 4
  855.     Chapter #0:4: start 1740.280000, end 2233.481000
  856.     Metadata:
  857.       title           : Chapter 5
  858.     Chapter #0:5: start 2233.481000, end 2802.091000
  859.     Metadata:
  860.       title           : Chapter 6
  861.     Chapter #0:6: start 2802.091000, end 3224.847000
  862.     Metadata:
  863.       title           : Chapter 7
  864.     Chapter #0:7: start 3224.847000, end 3791.705000
  865.     Metadata:
  866.       title           : Chapter 8
  867.     Chapter #0:8: start 3791.705000, end 4417.246000
  868.     Metadata:
  869.       title           : Chapter 9
  870.     Chapter #0:9: start 4417.246000, end 4619.031000
  871.     Metadata:
  872.       title           : Chapter 10
  873.     Stream #0:0(eng): Video: h264 (High), yuv420p(progressive), 1920x1080 [SAR 1:1 DAR 16:9], 23.98 fps, 23.98 tbr, 1k tbn, 47.95 tbc (default)
  874.     Metadata:
  875.       title           : MPEG-4 AVC Video  /11997 kbps  / 1080p / 23.976 fps / 16:9 / High Profile 4.1
  876.       BPS-eng         : 11802058
  877.       DURATION-eng    : 01:16:59.031000000
  878.       NUMBER_OF_FRAMES-eng: 110746
  879.       NUMBER_OF_BYTES-eng: 6814259468
  880.       _STATISTICS_WRITING_APP-eng: mkvmerge v35.0.0 ('All The Love In The World') 64-bit
  881.       _STATISTICS_WRITING_DATE_UTC-eng: 2019-10-11 10:45:40
  882.       _STATISTICS_TAGS-eng: BPS DURATION NUMBER_OF_FRAMES NUMBER_OF_BYTES
  883.     Stream #0:1(eng): Audio: dts (DTS-HD MA), 48000 Hz, 5.1(side), s32p (24 bit) (default)
  884.     Metadata:
  885.       title           : DTS-HD Master Audio  /English/  2446 kbps/ 5.1 / 48 kHz / 2446 kbps / 24-bit (DTS Core: 5.1 / 48 kHz / 1509 kbps / 24-bit)
  886.       BPS-eng         : 2445737
  887.       DURATION-eng    : 01:16:58.998000000
  888.       NUMBER_OF_FRAMES-eng: 433031
  889.       NUMBER_OF_BYTES-eng: 1412107236
  890.       _STATISTICS_WRITING_APP-eng: mkvmerge v35.0.0 ('All The Love In The World') 64-bit
  891.       _STATISTICS_WRITING_DATE_UTC-eng: 2019-10-11 10:45:40
  892.       _STATISTICS_TAGS-eng: BPS DURATION NUMBER_OF_FRAMES NUMBER_OF_BYTES
  893.     Stream #0:2(eng): Subtitle: hdmv_pgs_subtitle
  894.     Metadata:
  895.       title           : SDH
  896.       BPS-eng         : 43960
  897.       DURATION-eng    : 01:16:24.789000000
  898.       NUMBER_OF_FRAMES-eng: 2702
  899.       NUMBER_OF_BYTES-eng: 25193694
  900.       _STATISTICS_WRITING_APP-eng: mkvmerge v35.0.0 ('All The Love In The World') 64-bit
  901.       _STATISTICS_WRITING_DATE_UTC-eng: 2019-10-11 10:45:40
  902.       _STATISTICS_TAGS-eng: BPS DURATION NUMBER_OF_FRAMES NUMBER_OF_BYTES
  903.     Stream #0:3(fre): Subtitle: hdmv_pgs_subtitle
  904.     Metadata:
  905.       BPS-eng         : 36269
  906.       DURATION-eng    : 01:16:23.537000000
  907.       NUMBER_OF_FRAMES-eng: 2312
  908.       NUMBER_OF_BYTES-eng: 20780143
  909.       _STATISTICS_WRITING_APP-eng: mkvmerge v35.0.0 ('All The Love In The World') 64-bit
  910.       _STATISTICS_WRITING_DATE_UTC-eng: 2019-10-11 10:45:40
  911.       _STATISTICS_TAGS-eng: BPS DURATION NUMBER_OF_FRAMES NUMBER_OF_BYTES
  912.     Stream #0:4(spa): Subtitle: hdmv_pgs_subtitle
  913.     Metadata:
  914.       BPS-eng         : 39444
  915.       DURATION-eng    : 01:16:23.537000000
  916.       NUMBER_OF_FRAMES-eng: 2308
  917.       NUMBER_OF_BYTES-eng: 22599692
  918.       _STATISTICS_WRITING_APP-eng: mkvmerge v35.0.0 ('All The Love In The World') 64-bit
  919.       _STATISTICS_WRITING_DATE_UTC-eng: 2019-10-11 10:45:40
  920.       _STATISTICS_TAGS-eng: BPS DURATION NUMBER_OF_FRAMES NUMBER_OF_BYTES
  921.     Stream #0:5(ger): Subtitle: hdmv_pgs_subtitle
  922.     Metadata:
  923.       BPS-eng         : 49543
  924.       DURATION-eng    : 01:16:24.789000000
  925.       NUMBER_OF_FRAMES-eng: 2752
  926.       NUMBER_OF_BYTES-eng: 28393305
  927.       _STATISTICS_WRITING_APP-eng: mkvmerge v35.0.0 ('All The Love In The World') 64-bit
  928.       _STATISTICS_WRITING_DATE_UTC-eng: 2019-10-11 10:45:40
  929.       _STATISTICS_TAGS-eng: BPS DURATION NUMBER_OF_FRAMES NUMBER_OF_BYTES
  930. [13:22:53] scan: decoding previews for title 1
  931. [13:22:53] scan: audio 0x1: dca, rate=48000Hz, bitrate=1 English (DTS-HD MA) (5.1 ch)
  932. [13:22:54] scan: 10 previews, 1920x1080, 23.976 fps, autocrop = 0/0/0/0, aspect 16:9, PAR 1:1
  933. [13:22:54] libhb: scan thread found 1 valid title(s)
  934. [13:22:54] starting job
  935. [13:22:54] decomb filter thread started for segment 1
  936. [13:22:54] decomb filter thread started for segment 2
  937. [13:22:54] decomb filter thread started for segment 0
  938. [13:22:54] decomb filter thread started for segment 3
  939. [13:22:54] decomb check thread started for segment 1
  940. [13:22:54] decomb check thread started for segment 2
  941. [13:22:54] decomb check thread started for segment 3
  942. [13:22:54] mask filter thread started for segment 0
  943. [13:22:54] mask filter thread started for segment 1
  944. [13:22:54] mask filter thread started for segment 2
  945. [13:22:54] mask filter thread started for segment 3
  946. [13:22:54] mask erode thread started for segment 0
  947. [13:22:54] mask erode thread started for segment 1
  948. [13:22:54] mask erode thread started for segment 2
  949. [13:22:54] mask erode thread started for segment 3
  950. [13:22:54] mask dilate thread started for segment 0
  951. [13:22:54] mask dilate thread started for segment 1
  952. [13:22:54] mask dilate thread started for segment 2
  953. [13:22:54] mask dilate thread started for segment 3
  954. [13:22:54] yadif thread started for segment 0
  955. [13:22:54] yadif thread started for segment 1
  956. [13:22:54] yadif thread started for segment 2
  957. [13:22:54] yadif thread started for segment 3
  958. [13:22:54] job configuration:
  959. [13:22:54]  * source
  960. [13:22:54]    + /home/mh/Misc/Teen.Titans.Go.Vs.Teen.Titans.2019.1080p.BluRay.Remux.AVC.DTS-HD.MA.5.1-ALiEN.mkv
  961. [13:22:54]    + title 1, chapter(s) 1 to 10
  962. [13:22:54]    + container: matroska,webm
  963. [13:22:54]    + data rate: 14419 kbps
  964. [13:22:54]  * destination
  965. [13:22:54]    + /home/mh/Mult/Encode/Teen Titans Go Vs Teen Titans 2019 1080p BluRay 10-Bit AC3 5.1 x265 - ElPro.mkv
  966. [13:22:54]    + container: Matroska (libavformat)
  967. [13:22:54]  * video track
  968. [13:22:54]    + decoder: h264
  969. [13:22:54]    + filters
  970. [13:22:54]      + Comb Detect (mode=3:spatial-metric=2:motion-thresh=1:spatial-thresh=1:filter-mode=2:block-thresh=40:block-width=16:block-height=16)
  971. [13:22:54]      + Decomb (mode=39)
  972. [13:22:54]      + Framerate Shaper (mode=1)
  973. [13:22:54]        + frame rate: 23.976 fps -> constant 23.976 fps
  974. [13:22:54]      + Crop and Scale (width=1920:height=1080:crop-top=0:crop-bottom=0:crop-left=0:crop-right=0)
  975. [13:22:54]        + source: 1920 * 1080, crop (0/0/0/0): 1920 * 1080, scale: 1920 * 1080
  976. [13:22:54]    + Output geometry
  977. [13:22:54]      + storage dimensions: 1920 x 1080
  978. [13:22:54]      + pixel aspect ratio: 1 : 1
  979. [13:22:54]      + display dimensions: 1920 x 1080
  980. [13:22:54]    + encoder: H.265 10-bit (libx265)
  981. [13:22:54]      + preset:  medium
  982. [13:22:54]      + profile: auto
  983. [13:22:54]      + bitrate: 2600 kbps, pass: 1
  984. [13:22:54]      + fast first pass
  985. [13:22:54]      + color profile: 1-1-1
  986. [13:22:54]  * subtitle track 1, English [PGS] (track 0, id 0x2, Picture) -> Passthrough, Default
  987. [13:22:54]  * subtitle track 2, Francais [PGS] (track 1, id 0x3, Picture) -> Passthrough
  988. [13:22:54]  * subtitle track 3, español [PGS] (track 2, id 0x4, Picture) -> Passthrough
  989. [13:22:54]  * subtitle track 4, Deutsch [PGS] (track 3, id 0x5, Picture) -> Passthrough
  990. [13:22:54]  * audio track 1
  991. [13:22:54]    + decoder: English (DTS-HD MA) (5.1 ch) (track 1, id 0x1)
  992. [13:22:54]      + samplerate: 48000 Hz
  993. [13:22:54]    + mixdown: 5.1 Channels
  994. [13:22:54]    + dither: triangular
  995. [13:22:54]    + encoder: AC3 (libavcodec)
  996. [13:22:54]      + bitrate: 384 kbps, samplerate: 48000 Hz
  997. [13:22:54] decomb check thread started for segment 0
  998. [13:22:54] sync: expecting 110745 video frames
  999. x265 [info]: HEVC encoder version 2.9
  1000. x265 [info]: build info [Linux][GCC 7.3.0][64 bit] 10bit
  1001. x265 [info]: using cpu capabilities: MMX2 SSE2Fast LZCNT SSSE3 SSE4.2
  1002. x265 [info]: Main 10 profile, Level-4 (Main tier)
  1003. x265 [info]: Thread pool created using 4 threads
  1004. x265 [info]: Slices                              : 1
  1005. x265 [info]: frame threads / pool features       : 2 / wpp(17 rows)
  1006. x265 [info]: Coding QT: max CU size, min CU size : 64 / 8
  1007. x265 [info]: Residual QT: max TU size, max depth : 32 / 1 inter / 1 intra
  1008. x265 [info]: ME / range / subpel / merge         : dia / 57 / 2 / 1
  1009. x265 [info]: Keyframe min / max / scenecut / bias: 24 / 240 / 40 / 5.00
  1010. x265 [info]: Lookahead / bframes / badapt        : 20 / 4 / 2
  1011. x265 [info]: b-pyramid / weightp / weightb       : 1 / 1 / 0
  1012. x265 [info]: References / ref-limit  cu / depth  : 1 / on / on
  1013. x265 [info]: AQ: mode / str / qg-size / cu-tree  : 1 / 1.0 / 32 / 1
  1014. x265 [info]: Rate Control / qCompress            : ABR-2600 kbps / 0.60
  1015. x265 [info]: tools: rd=2 psy-rd=2.00 early-skip rskip signhide tmvp fast-intra
  1016. x265 [info]: tools: strong-intra-smoothing lslices=6 deblock sao stats-write
  1017. [13:22:54] sync: first pts video is 0
  1018. [13:22:54] sync: "Chapter 1" (1) at frame 1 time 0
  1019. [13:22:54] sync: first pts audio 0x1 is 0
  1020. [13:24:38] sync: first pts subtitle 0x2 is 2875410
  1021. [13:24:38] sync: first pts subtitle 0x5 is 2875410
  1022. [13:24:46] sync: first pts subtitle 0x3 is 3175740
  1023. [13:24:46] sync: first pts subtitle 0x4 is 3175740
  1024. [13:45:37] sync: "Chapter 2" (2) at frame 11356 time 42623831
  1025. [14:00:59] sync: "Chapter 3" (3) at frame 19625 time 73663590
  1026. [14:21:07] sync: "Chapter 4" (4) at frame 30744 time 115401536
  1027. [14:40:35] sync: "Chapter 5" (5) at frame 41726 time 156625218
  1028. [15:06:06] sync: "Chapter 6" (6) at frame 53551 time 201013312
  1029. [15:34:51] sync: "Chapter 7" (7) at frame 67184 time 252188186
  1030. [15:55:48] sync: "Chapter 8" (8) at frame 77320 time 290236196
  1031. [16:23:03] sync: "Chapter 9" (9) at frame 90914 time 341264673
  1032. [16:51:54] sync: "Chapter 10" (10) at frame 105909 time 397552155
  1033. [16:59:00] reader: done. 1 scr changes
  1034. [16:59:11] work: average encoding speed for job is 8.536522 fps
  1035. [16:59:11] comb detect: heavy 3055 | light 13409 | uncombed 94282 | total 110746
  1036. [16:59:11] decomb: deinterlaced 3055 | blended 13409 | unfiltered 94282 | total 110746
  1037. [16:59:11] vfr: 110746 frames output, 0 dropped and 0 duped for CFR/PFR
  1038. [16:59:11] vfr: lost time: 0 (0 frames)
  1039. [16:59:11] vfr: gained time: 0 (0 frames) (0 not accounted for)
  1040. [16:59:11] dca-decoder done: 433031 frames, 0 decoder errors
  1041. [16:59:11] h264-decoder done: 110746 frames, 0 decoder errors
  1042. [16:59:11] sync: got 110746 frames, 110745 expected
  1043. [16:59:11] sync: framerate min 23.981 fps, max 23.981 fps, avg 23.976 fps
  1044. x265 [info]: frame I:   2021, Avg QP:19.06  kb/s: 18128.84
  1045. x265 [info]: frame P:  37740, Avg QP:21.56  kb/s: 5052.15
  1046. x265 [info]: frame B:  70985, Avg QP:26.76  kb/s: 791.11  
  1047. x265 [info]: Weighted P-Frames: Y:3.4% UV:2.7%
  1048. x265 [info]: consecutive B-frames: 32.7% 11.1% 18.9% 19.6% 17.7%
  1049.  
  1050. encoded 110746 frames in 12976.72s (8.53 fps), 2559.59 kb/s, Avg QP:24.85
  1051. [16:59:11] starting job
  1052. [16:59:11] decomb filter thread started for segment 0
  1053. [16:59:11] decomb filter thread started for segment 1
  1054. [16:59:11] decomb check thread started for segment 1
  1055. [16:59:11] decomb check thread started for segment 0
  1056. [16:59:11] decomb check thread started for segment 2
  1057. [16:59:11] mask filter thread started for segment 0
  1058. [16:59:11] decomb filter thread started for segment 2
  1059. [16:59:11] mask filter thread started for segment 1
  1060. [16:59:11] decomb filter thread started for segment 3
  1061. [16:59:11] yadif thread started for segment 1
  1062. [16:59:11] yadif thread started for segment 0
  1063. [16:59:11] mask dilate thread started for segment 3
  1064. [16:59:11] mask dilate thread started for segment 2
  1065. [16:59:11] mask erode thread started for segment 0
  1066. [16:59:11] decomb check thread started for segment 3
  1067. [16:59:11] mask erode thread started for segment 1
  1068. [16:59:11] mask dilate thread started for segment 0
  1069. [16:59:11] mask erode thread started for segment 2
  1070. [16:59:11] mask dilate thread started for segment 1
  1071. [16:59:11] job configuration:
  1072. [16:59:11]  * source
  1073. [16:59:11]    + /home/mh/Misc/Teen.Titans.Go.Vs.Teen.Titans.2019.1080p.BluRay.Remux.AVC.DTS-HD.MA.5.1-ALiEN.mkv
  1074. [16:59:11]    + title 1, chapter(s) 1 to 10
  1075. [16:59:11]    + container: matroska,webm
  1076. [16:59:11]    + data rate: 14419 kbps
  1077. [16:59:11]  * destination
  1078. [16:59:11]    + /home/mh/Mult/Encode/Teen Titans Go Vs Teen Titans 2019 1080p BluRay 10-Bit AC3 5.1 x265 - ElPro.mkv
  1079. [16:59:11]    + container: Matroska (libavformat)
  1080. [16:59:11]  * video track
  1081. [16:59:11]    + decoder: h264
  1082. [16:59:11]    + filters
  1083. [16:59:11]      + Comb Detect (mode=3:spatial-metric=2:motion-thresh=1:spatial-thresh=1:filter-mode=2:block-thresh=40:block-width=16:block-height=16)
  1084. [16:59:11]      + Decomb (mode=39)
  1085. [16:59:11]      + Framerate Shaper (mode=1)
  1086. [16:59:11]        + frame rate: 23.976 fps -> constant 23.976 fps
  1087. [16:59:11]      + Crop and Scale (width=1920:height=1080:crop-top=0:crop-bottom=0:crop-left=0:crop-right=0)
  1088. [16:59:11]        + source: 1920 * 1080, crop (0/0/0/0): 1920 * 1080, scale: 1920 * 1080
  1089. [16:59:11]    + Output geometry
  1090. [16:59:11]      + storage dimensions: 1920 x 1080
  1091. [16:59:11]      + pixel aspect ratio: 1 : 1
  1092. [16:59:11]      + display dimensions: 1920 x 1080
  1093. [16:59:11]    + encoder: H.265 10-bit (libx265)
  1094. [16:59:11]      + preset:  medium
  1095. [16:59:11]      + profile: auto
  1096. [16:59:11]      + bitrate: 2600 kbps, pass: 2
  1097. [16:59:11]      + color profile: 1-1-1
  1098. [16:59:11]  * subtitle track 1, English [PGS] (track 0, id 0x2, Picture) -> Passthrough, Default
  1099. [16:59:11]  * subtitle track 2, Francais [PGS] (track 1, id 0x3, Picture) -> Passthrough
  1100. [16:59:11]  * subtitle track 3, español [PGS] (track 2, id 0x4, Picture) -> Passthrough
  1101. [16:59:11]  * subtitle track 4, Deutsch [PGS] (track 3, id 0x5, Picture) -> Passthrough
  1102. [16:59:11]  * audio track 1
  1103. [16:59:11]    + decoder: English (DTS-HD MA) (5.1 ch) (track 1, id 0x1)
  1104. [16:59:11]      + samplerate: 48000 Hz
  1105. [16:59:11]    + mixdown: 5.1 Channels
  1106. [16:59:11]    + dither: triangular
  1107. [16:59:11]    + encoder: AC3 (libavcodec)
  1108. [16:59:11]      + bitrate: 384 kbps, samplerate: 48000 Hz
  1109. [16:59:11] mask filter thread started for segment 2
  1110. [16:59:11] mask erode thread started for segment 3
  1111. [16:59:11] mask filter thread started for segment 3
  1112. [16:59:11] yadif thread started for segment 2
  1113. [16:59:11] yadif thread started for segment 3
  1114. [16:59:11] sync: expecting 110746 video frames
  1115. x265 [info]: HEVC encoder version 2.9
  1116. x265 [info]: build info [Linux][GCC 7.3.0][64 bit] 10bit
  1117. x265 [info]: using cpu capabilities: MMX2 SSE2Fast LZCNT SSSE3 SSE4.2
  1118. x265 [info]: Main 10 profile, Level-4 (Main tier)
  1119. x265 [info]: Thread pool created using 4 threads
  1120. x265 [info]: Slices                              : 1
  1121. x265 [info]: frame threads / pool features       : 2 / wpp(17 rows)
  1122. x265 [info]: Coding QT: max CU size, min CU size : 64 / 8
  1123. x265 [info]: Residual QT: max TU size, max depth : 32 / 1 inter / 1 intra
  1124. x265 [info]: ME / range / subpel / merge         : hex / 57 / 2 / 2
  1125. x265 [info]: Keyframe min / max / scenecut / bias: 24 / 240 / 40 / 5.00
  1126. x265 [info]: Lookahead / bframes / badapt        : 20 / 4 / 2
  1127. x265 [info]: b-pyramid / weightp / weightb       : 1 / 1 / 0
  1128. x265 [info]: References / ref-limit  cu / depth  : 3 / on / on
  1129. x265 [info]: AQ: mode / str / qg-size / cu-tree  : 1 / 1.0 / 32 / 1
  1130. x265 [info]: Rate Control / qCompress            : ABR-2600 kbps / 0.60
  1131. x265 [info]: tools: rd=3 psy-rd=2.00 rskip signhide tmvp strong-intra-smoothing
  1132. x265 [info]: tools: lslices=6 deblock sao stats-read
  1133. [16:59:14] sync: first pts video is 0
  1134. [16:59:14] sync: "Chapter 1" (1) at frame 1 time 0
  1135. [16:59:14] sync: first pts audio 0x1 is 0
  1136. [17:01:42] sync: first pts subtitle 0x2 is 2875410
  1137. [17:01:42] sync: first pts subtitle 0x5 is 2875410
  1138. [17:01:50] sync: first pts subtitle 0x3 is 3175740
  1139. [17:01:50] sync: first pts subtitle 0x4 is 3175740
  1140. [18:47:17] sync: "Chapter 2" (2) at frame 11356 time 42623831
  1141. [19:06:30] sync: "Chapter 3" (3) at frame 19625 time 73663590
  1142. [19:33:32] sync: "Chapter 4" (4) at frame 30744 time 115401536
  1143. [20:03:48] sync: "Chapter 5" (5) at frame 41726 time 156625218
  1144. [20:38:38] sync: "Chapter 6" (6) at frame 53551 time 201013312
  1145. [21:14:53] sync: "Chapter 7" (7) at frame 67184 time 252188186
  1146. [21:48:40] sync: "Chapter 8" (8) at frame 77320 time 290236196
  1147. [22:32:41] sync: "Chapter 9" (9) at frame 90914 time 341264673
  1148. [23:25:09] sync: "Chapter 10" (10) at frame 105909 time 397552155
  1149. [23:36:32] reader: done. 1 scr changes
  1150. [23:36:53] work: average encoding speed for job is 4.643134 fps
  1151. [23:36:53] comb detect: heavy 3055 | light 13409 | uncombed 94282 | total 110746
  1152. [23:36:53] decomb: deinterlaced 3055 | blended 13409 | unfiltered 94282 | total 110746
  1153. [23:36:53] vfr: 110746 frames output, 0 dropped and 0 duped for CFR/PFR
  1154. [23:36:53] vfr: lost time: 0 (0 frames)
  1155. [23:36:53] vfr: gained time: 0 (0 frames) (0 not accounted for)
  1156. [23:36:53] dca-decoder done: 433031 frames, 0 decoder errors
  1157. [23:36:53] h264-decoder done: 110746 frames, 0 decoder errors
  1158. [23:36:53] sync: got 110746 frames, 110746 expected
  1159. [23:36:53] sync: framerate min 23.981 fps, max 23.981 fps, avg 23.976 fps
  1160. x265 [info]: frame I:   2021, Avg QP:17.84  kb/s: 21267.82
  1161. x265 [info]: frame P:  37740, Avg QP:21.72  kb/s: 4854.69
  1162. x265 [info]: frame B:  70985, Avg QP:27.16  kb/s: 868.94  
  1163. x265 [info]: Weighted P-Frames: Y:3.4% UV:2.7%
  1164. x265 [info]: consecutive B-frames: 32.7% 11.1% 18.9% 19.6% 17.7%
  1165.  
  1166. encoded 110746 frames in 23858.79s (4.64 fps), 2599.46 kb/s, Avg QP:25.13
  1167. [23:36:53] mux: track 0, 110746 frames, 1501318826 bytes, 2600.23 kbps, fifo 2048
  1168. [23:36:53] mux: track 1, 144343 frames, 221710848 bytes, 384.00 kbps, fifo 2048
  1169. [23:36:53] mux: track 2, 2702 frames, 25193694 bytes, 43.63 kbps, fifo 64
  1170. [23:36:53] mux: track 3, 2312 frames, 20780143 bytes, 35.99 kbps, fifo 64
  1171. [23:36:53] mux: track 4, 2308 frames, 22599692 bytes, 39.14 kbps, fifo 64
  1172. [23:36:53] mux: track 5, 2752 frames, 28393305 bytes, 49.18 kbps, fifo 64
  1173. [23:36:53] libhb: work result = 0
RAW Paste Data
We use cookies for various purposes including analytics. By continuing to use Pastebin, you agree to our use of cookies as described in the Cookies Policy. OK, I Understand
Top