SHARE
TWEET

StaxRip x64 1.3.3.1 beta

a guest Mar 18th, 2016 77 Never
Not a member of Pastebin yet? Sign Up, it unlocks many cool features!
  1. -----------------------------------------------------------
  2.       _________ __                __________.__        
  3.      /   _____//  |______  ___  __\______   \__|_____  
  4.      \_____  \\   __\__  \ \  \/  /|       _/  \____ \
  5.      /        \|  |  / __ \_>    < |    |   \  |  |_> >
  6.     /_______  /|__| (____  /__/\_ \|____|_  /__|   __/
  7.             \/           \/      \/       \/   |__|  
  8.  
  9. ------------------------------------------------------------
  10.                         Environment
  11. ------------------------------------------------------------
  12.  
  13. StaxRip x64 : 1.3.3.1
  14. OS          : Windows 10 Pro
  15. Language    : English (United States)
  16. CPU         : Intel(R) Core(TM) i7-4930K CPU @ 3.40GHz
  17. GPU         : NVIDIA GeForce GTX 780, NVIDIA GeForce GTX 660
  18.  
  19. ------------------------------------------------------------
  20.                    Source file MediaInfo
  21. ------------------------------------------------------------
  22.  
  23. E:\VIDEO\Rome s01e09.m2ts
  24.  
  25. General
  26. ID                          : 0 (0x0)
  27. Complete name               : E:\VIDEO\Rome s01e09.m2ts
  28. Format                      : BDAV
  29. Format/Info                 : Blu-ray Video
  30. File size                   : 16.7 GiB
  31. Duration                    : 53mn 29s
  32. Overall bit rate mode       : Variable
  33. Overall bit rate            : 44.6 Mbps
  34. Maximum Overall bit rate    : 48.0 Mbps
  35.  
  36. Video
  37. ID                          : 4113 (0x1011)
  38. Menu ID                     : 1 (0x1)
  39. Format                      : AVC
  40. Format/Info                 : Advanced Video Codec
  41. Format profile              : High@L4.1
  42. Format settings, CABAC      : Yes
  43. Format settings, ReFrames   : 4 frames
  44. Codec ID                    : 27
  45. Duration                    : 53mn 28s
  46. Bit rate mode               : Variable
  47. Maximum bit rate            : 33.0 Mbps
  48. Width                       : 1 920 pixels
  49. Height                      : 1 080 pixels
  50. Display aspect ratio        : 16:9
  51. Frame rate                  : 23.976 (24000/1001) fps
  52. Color space                 : YUV
  53. Chroma subsampling          : 4:2:0
  54. Bit depth                   : 8 bits
  55. Scan type                   : Progressive
  56. Color range                 : Limited
  57. Color primaries             : BT.709
  58. Transfer characteristics    : BT.709
  59. Matrix coefficients         : BT.709
  60.  
  61. Audio #1
  62. ID                          : 4352 (0x1100)
  63. Menu ID                     : 1 (0x1)
  64. Format                      : DTS
  65. Format/Info                 : Digital Theater Systems
  66. Format profile              : MA / Core
  67. Mode                        : 16
  68. Format settings, Endianness : Big
  69. Muxing mode                 : Stream extension
  70. Codec ID                    : 134
  71. Duration                    : 53mn 28s
  72. Bit rate mode               : Variable / Constant
  73. Bit rate                    : Unknown / 1 509 Kbps
  74. Channel(s)                  : 6 channels
  75. Channel positions           : Front: L C R, Side: L R, LFE
  76. Sampling rate               : 48.0 KHz
  77. Frame rate                  : 93.750 fps (512 spf)
  78. Bit depth                   : 24 bits
  79. Compression mode            : Lossless / Lossy
  80.  
  81. Audio #2
  82. ID                          : 4353 (0x1101)
  83. Menu ID                     : 1 (0x1)
  84. Format                      : DTS
  85. Format/Info                 : Digital Theater Systems
  86. Mode                        : 16
  87. Format settings, Endianness : Big
  88. Codec ID                    : 130
  89. Duration                    : 53mn 28s
  90. Bit rate mode               : Constant
  91. Bit rate                    : 768 Kbps
  92. Channel(s)                  : 2 channels
  93. Channel positions           : Front: L R
  94. Sampling rate               : 48.0 KHz
  95. Frame rate                  : 93.750 fps (512 spf)
  96. Bit depth                   : 24 bits
  97. Compression mode            : Lossy
  98. Stream size                 : 294 MiB (2%)
  99.  
  100. Audio #3
  101. ID                          : 4354 (0x1102)
  102. Menu ID                     : 1 (0x1)
  103. Format                      : DTS
  104. Format/Info                 : Digital Theater Systems
  105. Mode                        : 16
  106. Format settings, Endianness : Big
  107. Codec ID                    : 130
  108. Duration                    : 53mn 28s
  109. Bit rate mode               : Constant
  110. Bit rate                    : 768 Kbps
  111. Channel(s)                  : 2 channels
  112. Channel positions           : Front: L R
  113. Sampling rate               : 48.0 KHz
  114. Frame rate                  : 93.750 fps (512 spf)
  115. Bit depth                   : 24 bits
  116. Compression mode            : Lossy
  117. Stream size                 : 294 MiB (2%)
  118.  
  119. Audio #4
  120. ID                          : 4355 (0x1103)
  121. Menu ID                     : 1 (0x1)
  122. Format                      : DTS
  123. Format/Info                 : Digital Theater Systems
  124. Format profile              : MA / Core
  125. Mode                        : 16
  126. Format settings, Endianness : Big
  127. Muxing mode                 : Stream extension
  128. Codec ID                    : 134
  129. Duration                    : 53mn 28s
  130. Bit rate mode               : Variable / Constant
  131. Bit rate                    : Unknown / 1 509 Kbps
  132. Channel(s)                  : 6 channels
  133. Channel positions           : Front: L C R, Side: L R, LFE
  134. Sampling rate               : 48.0 KHz
  135. Frame rate                  : 93.750 fps (512 spf)
  136. Bit depth                   : 24 bits
  137. Compression mode            : Lossless / Lossy
  138.  
  139. Audio #5
  140. ID                          : 4356 (0x1104)
  141. Menu ID                     : 1 (0x1)
  142. Format                      : DTS
  143. Format/Info                 : Digital Theater Systems
  144. Mode                        : 16
  145. Format settings, Endianness : Big
  146. Codec ID                    : 130
  147. Duration                    : 53mn 28s
  148. Bit rate mode               : Constant
  149. Bit rate                    : 768 Kbps
  150. Channel(s)                  : 2 channels
  151. Channel positions           : Front: L R
  152. Sampling rate               : 48.0 KHz
  153. Frame rate                  : 93.750 fps (512 spf)
  154. Bit depth                   : 16 bits
  155. Compression mode            : Lossy
  156. Stream size                 : 294 MiB (2%)
  157.  
  158. Audio #6
  159. ID                          : 4357 (0x1105)
  160. Menu ID                     : 1 (0x1)
  161. Format                      : DTS
  162. Format/Info                 : Digital Theater Systems
  163. Mode                        : 16
  164. Format settings, Endianness : Big
  165. Codec ID                    : 130
  166. Duration                    : 53mn 28s
  167. Bit rate mode               : Constant
  168. Bit rate                    : 768 Kbps
  169. Channel(s)                  : 2 channels
  170. Channel positions           : Front: L R
  171. Sampling rate               : 48.0 KHz
  172. Frame rate                  : 93.750 fps (512 spf)
  173. Bit depth                   : 16 bits
  174. Compression mode            : Lossy
  175. Stream size                 : 294 MiB (2%)
  176.  
  177. Audio #7
  178. ID                          : 4358 (0x1106)
  179. Menu ID                     : 1 (0x1)
  180. Format                      : DTS
  181. Format/Info                 : Digital Theater Systems
  182. Mode                        : 16
  183. Format settings, Endianness : Big
  184. Codec ID                    : 130
  185. Duration                    : 53mn 28s
  186. Bit rate mode               : Constant
  187. Bit rate                    : 768 Kbps
  188. Channel(s)                  : 2 channels
  189. Channel positions           : Front: L R
  190. Sampling rate               : 48.0 KHz
  191. Frame rate                  : 93.750 fps (512 spf)
  192. Bit depth                   : 16 bits
  193. Compression mode            : Lossy
  194. Stream size                 : 294 MiB (2%)
  195.  
  196. Text #1
  197. ID                          : 4608 (0x1200)
  198. Menu ID                     : 1 (0x1)
  199. Format                      : PGS
  200. Codec ID                    : 144
  201.  
  202. Text #2
  203. ID                          : 4609 (0x1201)
  204. Menu ID                     : 1 (0x1)
  205. Format                      : PGS
  206. Codec ID                    : 144
  207.  
  208. Text #3
  209. ID                          : 4610 (0x1202)
  210. Menu ID                     : 1 (0x1)
  211. Format                      : PGS
  212. Codec ID                    : 144
  213.  
  214. Text #4
  215. ID                          : 4611 (0x1203)
  216. Menu ID                     : 1 (0x1)
  217. Format                      : PGS
  218. Codec ID                    : 144
  219.  
  220. Text #5
  221. ID                          : 4612 (0x1204)
  222. Menu ID                     : 1 (0x1)
  223. Format                      : PGS
  224. Codec ID                    : 144
  225.  
  226. Text #6
  227. ID                          : 4613 (0x1205)
  228. Menu ID                     : 1 (0x1)
  229. Format                      : PGS
  230. Codec ID                    : 144
  231.  
  232. Text #7
  233. ID                          : 4614 (0x1206)
  234. Menu ID                     : 1 (0x1)
  235. Format                      : PGS
  236. Codec ID                    : 144
  237.  
  238. Text #8
  239. ID                          : 4615 (0x1207)
  240. Menu ID                     : 1 (0x1)
  241. Format                      : PGS
  242. Codec ID                    : 144
  243.  
  244. Text #9
  245. ID                          : 4616 (0x1208)
  246. Menu ID                     : 1 (0x1)
  247. Format                      : PGS
  248. Codec ID                    : 144
  249.  
  250. Text #10
  251. ID                          : 4617 (0x1209)
  252. Menu ID                     : 1 (0x1)
  253. Format                      : PGS
  254. Codec ID                    : 144
  255.  
  256. Text #11
  257. ID                          : 4618 (0x120A)
  258. Menu ID                     : 1 (0x1)
  259. Format                      : PGS
  260. Codec ID                    : 144
  261.  
  262. Text #12
  263. ID                          : 4619 (0x120B)
  264. Menu ID                     : 1 (0x1)
  265. Format                      : PGS
  266. Codec ID                    : 144
  267.  
  268. Text #13
  269. ID                          : 4620 (0x120C)
  270. Menu ID                     : 1 (0x1)
  271. Format                      : PGS
  272. Codec ID                    : 144
  273.  
  274. Text #14
  275. ID                          : 4621 (0x120D)
  276. Menu ID                     : 1 (0x1)
  277. Format                      : PGS
  278. Codec ID                    : 144
  279.  
  280. Text #15
  281. ID                          : 4622 (0x120E)
  282. Menu ID                     : 1 (0x1)
  283. Format                      : PGS
  284. Codec ID                    : 144
  285.  
  286. Text #16
  287. ID                          : 4623 (0x120F)
  288. Menu ID                     : 1 (0x1)
  289. Format                      : PGS
  290. Codec ID                    : 144
  291.  
  292. Text #17
  293. ID                          : 4624 (0x1210)
  294. Menu ID                     : 1 (0x1)
  295. Format                      : PGS
  296. Codec ID                    : 144
  297.  
  298.  
  299. ------------------------------------------------------------
  300.                Process M2TS file using eac3to
  301. ------------------------------------------------------------
  302.  
  303. "K:\__DOWNLOADS__\StaxRip_x64_2016-03-14_test4\Apps\eac3to\eac3to.exe" "E:\VIDEO\Rome s01e09.m2ts" -progressnumbers
  304.  
  305. M2TS, 1 video track, 7 audio tracks, 17 subtitle tracks, 0:53:28, 24p /1.001  
  306. 1: h264/AVC, 1080p24 /1.001 (16:9)                                            
  307. 2: DTS Master Audio, 5.1 channels, 24 bits, 48kHz                              
  308.    (core: DTS, 5.1 channels, 1509kbps, 48kHz)                                  
  309. 3: DTS, 2.0 channels, 768kbps, 48kHz                                          
  310. 4: DTS, 2.0 channels, 768kbps, 48kHz                                          
  311. 5: DTS Master Audio, 5.1 channels, 24 bits, 48kHz                              
  312.    (core: DTS, 5.1 channels, 1509kbps, 48kHz)                                  
  313. 6: DTS, 2.0 channels, 768kbps, 48kHz                                          
  314. 7: DTS, 2.0 channels, 768kbps, 48kHz                                          
  315. 8: DTS, 2.0 channels, 768kbps, 48kHz                                          
  316. 9: Subtitle (PGS)                                                              
  317. 10: Subtitle (PGS)                                                            
  318. 11: Subtitle (PGS)                                                            
  319. 12: Subtitle (PGS)                                                            
  320. 13: Subtitle (PGS)                                                            
  321. 14: Subtitle (PGS)                                                            
  322. 15: Subtitle (PGS)                                                            
  323. 16: Subtitle (PGS)                                                            
  324. 17: Subtitle (PGS)                                                            
  325. 18: Subtitle (PGS)                                                            
  326. 19: Subtitle (PGS)                                                            
  327. 20: Subtitle (PGS)                                                            
  328. 21: Subtitle (PGS)                                                            
  329. 22: Subtitle (PGS)                                                            
  330. 23: Subtitle (PGS)                                                            
  331. 24: Subtitle (PGS)                                                            
  332. 25: Subtitle (PGS)                                                            
  333.  
  334. ------------------------------------------------------------
  335.                   Demux M2TS using eac3to
  336. ------------------------------------------------------------
  337.  
  338. K:\__DOWNLOADS__\StaxRip_x64_2016-03-14_test4\Apps\eac3to\eac3to.exe "E:\VIDEO\Rome s01e09.m2ts" 2: "E:\VIDEO\Rome s01e09_temp\Rome s01e09 ID2 Invariant Language (Invariant Country).dts" -core -progressnumbers
  339.  
  340. M2TS, 1 video track, 7 audio tracks, 17 subtitle tracks, 0:53:28, 24p /1.001
  341. 1: h264/AVC, 1080p24 /1.001 (16:9)
  342. 2: DTS Master Audio, 5.1 channels, 24 bits, 48kHz
  343. (core: DTS, 5.1 channels, 1509kbps, 48kHz)
  344. 3: DTS, 2.0 channels, 768kbps, 48kHz
  345. 4: DTS, 2.0 channels, 768kbps, 48kHz
  346. 5: DTS Master Audio, 5.1 channels, 24 bits, 48kHz
  347. (core: DTS, 5.1 channels, 1509kbps, 48kHz)
  348. 6: DTS, 2.0 channels, 768kbps, 48kHz
  349. 7: DTS, 2.0 channels, 768kbps, 48kHz
  350. 8: DTS, 2.0 channels, 768kbps, 48kHz
  351. 9: Subtitle (PGS)
  352. 10: Subtitle (PGS)
  353. 11: Subtitle (PGS)
  354. 12: Subtitle (PGS)
  355. 13: Subtitle (PGS)
  356. 14: Subtitle (PGS)
  357. 15: Subtitle (PGS)
  358. 16: Subtitle (PGS)
  359. 17: Subtitle (PGS)
  360. 18: Subtitle (PGS)
  361. 19: Subtitle (PGS)
  362. 20: Subtitle (PGS)
  363. 21: Subtitle (PGS)
  364. 22: Subtitle (PGS)
  365. 23: Subtitle (PGS)
  366. 24: Subtitle (PGS)
  367. 25: Subtitle (PGS)
  368. a02 Extracting audio track number 2...
  369. a02 Extracting DTS core...
  370. a02 Creating file "E:\VIDEO\Rome s01e09_temp\Rome s01e09 ID2 Invariant Language (Invariant Country).dts"...
  371. Video track 1 contains 76925 frames.
  372. eac3to processing took 2 minutes, 32 seconds.
  373. Done.
  374.  
  375. Start:    4:05:10 PM
  376. End:      4:07:44 PM
  377. Duration: 00:02:33
  378.  
  379.  
  380. ------------------------------------------------------------
  381.                            Script
  382. ------------------------------------------------------------
  383.  
  384. LoadPlugin("K:\__DOWNLOADS__\StaxRip_x64_2016-03-14_test4\Apps\Plugins\avs\L-SMASH-Works\LSMASHSource.dll")
  385. LWLibavVideoSource("E:\VIDEO\Rome s01e09.m2ts")
  386.  
  387. ------------------------------------------------------------
  388.                      Script Properties
  389. ------------------------------------------------------------
  390.  
  391. source frame count : 76925
  392. source frame rate  : 23.976024
  393. source duration    : 00:53:28.4140000
  394. target frame count : 76925
  395. target frame rate  : 23.976024
  396. target duration    : 00:53:28.4140000
  397.  
  398. ------------------------------------------------------------
  399.                 Audio Source File MediaInfo
  400. ------------------------------------------------------------
  401.  
  402. General
  403. Complete name               : E:\VIDEO\Rome s01e09_temp\Rome s01e09 ID2 Invariant Language (Invariant Country).dts
  404. Format                      : DTS
  405. Format/Info                 : Digital Theater Systems
  406. File size                   : 577 MiB
  407. Duration                    : 53mn 28s
  408. Overall bit rate mode       : Constant
  409. Overall bit rate            : 1 509 Kbps
  410.  
  411. Audio
  412. Format                      : DTS
  413. Format/Info                 : Digital Theater Systems
  414. Mode                        : 16
  415. Format settings, Endianness : Big
  416. Duration                    : 53mn 28s
  417. Bit rate mode               : Constant
  418. Bit rate                    : 1 509 Kbps
  419. Channel(s)                  : 6 channels
  420. Channel positions           : Front: L C R, Side: L R, LFE
  421. Sampling rate               : 48.0 KHz
  422. Frame rate                  : 93.750 fps (512 spf)
  423. Bit depth                   : 24 bits
  424. Compression mode            : Lossy
  425. Stream size                 : 577 MiB (100%)
  426.  
  427.  
  428. ------------------------------------------------------------
  429.            Convert from DTS to FLAC using ffmpeg
  430. ------------------------------------------------------------
  431.  
  432. K:\__DOWNLOADS__\StaxRip_x64_2016-03-14_test4\Apps\ffmpeg\ffmpeg.exe -i "E:\VIDEO\Rome s01e09_temp\Rome s01e09 ID2 Invariant Language (Invariant Country).dts" -y -hide_banner -ac 6 "E:\VIDEO\Rome s01e09_temp\Rome s01e09 ID2 Invariant Language (Invariant Country).flac"
  433.  
  434. [dts @ 0000023397d7a860] Estimating duration from bitrate, this may be inaccurate
  435. Input #0, dts, from 'E:\VIDEO\Rome s01e09_temp\Rome s01e09 ID2 Invariant Language (Invariant Country).dts':
  436. Duration: 00:52:32.02, start: 0.000000, bitrate: 1535 kb/s
  437. Stream #0:0: Audio: dts (DTS), 48000 Hz, 5.1(side), fltp, 1536 kb/s
  438. [flac @ 0000023397d844e0] encoding as 24 bits-per-sample
  439. Output #0, flac, to 'E:\VIDEO\Rome s01e09_temp\Rome s01e09 ID2 Invariant Language (Invariant Country).flac':
  440. Metadata:
  441. encoder         : Lavf57.28.100
  442. WAVEFORMATEXTENSIBLE_CHANNEL_MASK: 0x3f
  443. Stream #0:0: Audio: flac, 48000 Hz, 5.1, s32 (24 bit), 128 kb/s
  444. Metadata:
  445. encoder         : Lavc57.28.100 flac
  446. Stream mapping:
  447. Stream #0:0 -> #0:0 (dts (dca) -> flac (native))
  448. Press [q] to stop, [?] for help
  449. video:0kB audio:1202531kB subtitle:0kB other streams:0kB global headers:0kB muxing overhead: 0.000676%
  450.  
  451. Start:    4:10:45 PM
  452. End:      4:11:38 PM
  453. Duration: 00:00:53
  454.  
  455. General
  456. Complete name         : E:\VIDEO\Rome s01e09_temp\Rome s01e09 ID2 Invariant Language (Invariant Country).flac
  457. Format                : FLAC
  458. Format/Info           : Free Lossless Audio Codec
  459. File size             : 1.15 GiB
  460. Duration              : 53mn 28s
  461. Overall bit rate mode : Variable
  462. Overall bit rate      : 3 070 Kbps
  463. Writing application   : Lavf57.28.100
  464.  
  465. Audio
  466. Format                : FLAC
  467. Format/Info           : Free Lossless Audio Codec
  468. Duration              : 53mn 28s
  469. Bit rate mode         : Variable
  470. Bit rate              : 3 070 Kbps
  471. Channel(s)            : 6 channels
  472. Channel positions     : Front: L C R, Back: L R, LFE
  473. Sampling rate         : 48.0 KHz
  474. Bit depth             : 24 bits
  475. Stream size           : 1.15 GiB (100%)
  476. Writing library       : Lavf57.28.100
  477.  
  478.  
  479. ------------------------------------------------------------
  480.                  Audio encoding using qaac
  481. ------------------------------------------------------------
  482.  
  483. K:\__DOWNLOADS__\StaxRip_x64_2016-03-14_test4\Apps\qaac\qaac64.exe -o "E:\VIDEO\Rome s01e09_temp\Rome s01e09 ID2 Invariant Language (Invariant Country)_out1.m4a" --cvbr 500 --he --normalize "E:\VIDEO\Rome s01e09_temp\Rome s01e09 ID2 Invariant Language (Invariant Country).flac"
  484.  
  485. qaac 2.58, CoreAudioToolbox 7.10.5.0
  486. Rome s01e09 ID2 Invariant Language (Invariant Country)_out1.m4a
  487. Scanning maximum peak...
  488. 154003968/154003968 samples processed in 0:19.125
  489. Peak value: 0.66409
  490. AAC-HE Encoder, CVBR 192kbps, Quality 96
  491. 154003968/154003968 samples processed in 2:40.514
  492. Overall bitrate: 212.462kbps
  493. Optimizing...58%
  494. Optimizing...done
  495.  
  496. Start:    4:11:38 PM
  497. End:      4:14:39 PM
  498. Duration: 00:03:01
  499.  
  500. General
  501. Complete name         : E:\VIDEO\Rome s01e09_temp\Rome s01e09 ID2 Invariant Language (Invariant Country)_out1.m4a
  502. Format                : MPEG-4
  503. Format profile        : Apple audio with iTunes info
  504. Codec ID              : M4A  (M4A /mp42/isom)
  505. File size             : 81.6 MiB
  506. Duration              : 53mn 28s
  507. Overall bit rate mode : Variable
  508. Overall bit rate      : 213 Kbps
  509. Encoded date          : UTC 2016-03-18 20:11:58
  510. Tagged date           : UTC 2016-03-18 20:14:38
  511. Writing application   : qaac 2.58, CoreAudioToolbox 7.10.5.0, AAC-HE Encoder, CVBR 192kbps, Quality 96
  512. Encoding Params       : (Binary)
  513.  
  514. Audio
  515. ID                    : 1
  516. Format                : AAC
  517. Format/Info           : Advanced Audio Codec
  518. Format profile        : HE-AAC / LC
  519. Codec ID              : 40
  520. Duration              : 53mn 28s
  521. Bit rate mode         : Variable
  522. Bit rate              : 212 Kbps
  523. Channel(s)            : 6 channels
  524. Channel positions     : Front: L C R, Side: L R, LFE
  525. Sampling rate         : 48.0 KHz / 24.0 KHz
  526. Frame rate            : 23.438 fps (1024 spf)
  527. Compression mode      : Lossy
  528. Stream size           : 81.3 MiB (100%)
  529. Encoded date          : UTC 2016-03-18 20:11:58
  530. Tagged date           : UTC 2016-03-18 20:14:38
  531.  
  532.  
  533. ------------------------------------------------------------
  534.                             x265
  535. ------------------------------------------------------------
  536.  
  537. "K:\__DOWNLOADS__\StaxRip_x64_2016-03-14_test4\Apps\ffmpeg\ffmpeg.exe" -i "E:\VIDEO\Rome s01e09_temp\Rome s01e09.avs" -f yuv4mpegpipe -pix_fmt yuv420p -loglevel error - | "K:\__DOWNLOADS__\StaxRip_x64_2016-03-14_test4\Apps\x265\x265_ml.exe" --crf 19 --output-depth 10 --limit-refs 2 --limit-modes --frames 76925 --y4m --output "E:\VIDEO\Rome s01e09_temp\Rome s01e09_out.hevc" -
  538.  
  539. cmd.exe /C call "E:\VIDEO\Rome s01e09_temp\Rome s01e09_encode.bat"
  540.  
  541. K:\__DOWNLOADS__\StaxRip_x64_2016-03-14_test4>"K:\__DOWNLOADS__\StaxRip_x64_2016-03-14_test4\Apps\ffmpeg\ffmpeg.exe" -i "E:\VIDEO\Rome s01e09_temp\Rome s01e09.avs" -f yuv4mpegpipe -pix_fmt yuv420p -loglevel error -   | "K:\__DOWNLOADS__\StaxRip_x64_2016-03-14_test4\Apps\x265\x265_ml.exe" --crf 19 --output-depth 10 --limit-refs 2 --limit-modes --frames 76925 --y4m --output "E:\VIDEO\Rome s01e09_temp\Rome s01e09_out.hevc" -
RAW Paste Data
We use cookies for various purposes including analytics. By continuing to use Pastebin, you agree to our use of cookies as described in the Cookies Policy. OK, I Understand
 
Top