iMN0

The.Duke.1080p.WEB-DL.DD5.1.H.264-EVO.mkv

Jul 17th, 2021
155
Never
Not a member of Pastebin yet? Sign Up, it unlocks many cool features!
  1. General
  2. Unique ID : 312498500614721618877683049758258088826 (0xEB1905A133C41FC5955A71129DB7CB7A)
  3. Complete name : The.Duke.1080p.WEB-DL.DD5.1.H.264-EVO.mkv
  4. Format : Matroska
  5. Format version : Version 4
  6. File size : 4.65 GiB
  7. Duration : 1 h 34 min
  8. Overall bit rate : 7 016 kb/s
  9. Encoded date : UTC 2021-07-16 20:07:52
  10. Writing application : mkvmerge v19.0.0 ('Brave Captain') 64-bit
  11. Writing library : libebml v1.3.5 + libmatroska v1.4.8
  12.  
  13. Video
  14. ID : 1
  15. Format : AVC
  16. Format/Info : Advanced Video Codec
  17. Format profile : High@L4
  18. Format settings : CABAC / 5 Ref Frames
  19. Format settings, CABAC : Yes
  20. Format settings, Reference frames : 5 frames
  21. Codec ID : V_MPEG4/ISO/AVC
  22. Duration : 1 h 34 min
  23. Bit rate : 6 631 kb/s
  24. Width : 1 920 pixels
  25. Height : 808 pixels
  26. Display aspect ratio : 2.40:1
  27. Frame rate mode : Constant
  28. Frame rate : 24.000 FPS
  29. Color space : YUV
  30. Chroma subsampling : 4:2:0
  31. Bit depth : 8 bits
  32. Scan type : Progressive
  33. Bits/(Pixel*Frame) : 0.178
  34. Stream size : 4.39 GiB (94%)
  35. Default : Yes
  36. Forced : No
  37. Color range : Limited
  38. Color primaries : BT.709
  39. Transfer characteristics : BT.709
  40. Matrix coefficients : BT.709
  41.  
  42. Audio
  43. ID : 2
  44. Format : AC-3
  45. Format/Info : Audio Coding 3
  46. Commercial name : Dolby Digital
  47. Codec ID : A_AC3
  48. Duration : 1 h 34 min
  49. Bit rate mode : Constant
  50. Bit rate : 384 kb/s
  51. Channel(s) : 6 channels
  52. Channel layout : L R C LFE Ls Rs
  53. Sampling rate : 48.0 kHz
  54. Frame rate : 31.250 FPS (1536 SPF)
  55. Compression mode : Lossy
  56. Stream size : 260 MiB (5%)
  57. Title : English
  58. Language : English
  59. Service kind : Complete Main
  60. Default : No
  61. Forced : No
RAW Paste Data